<?xml version="1.0" standalone="no"?>
<!DOCTYPE svg PUBLIC "-//W3C//DTD SVG 1.1//EN" "http://www.w3.org/Graphics/SVG/1.1/DTD/svg11.dtd" >
<!--
2022-10-19: Created with FontForge (http://fontforge.org)
-->
<svg xmlns="http://www.w3.org/2000/svg" xmlns:xlink="http://www.w3.org/1999/xlink" version="1.1">
<metadata>
Created by FontForge 20220308 at Wed Oct 19 17:08:59 2022
 By Gogulaanand R

</metadata>
<defs>
<font id="glyphs" horiz-adv-x="512" >
  <font-face 
    font-family="glyphs"
    font-weight="400"
    font-stretch="normal"
    units-per-em="512"
    panose-1="2 0 5 3 0 0 0 0 0 0"
    ascent="448"
    descent="-64"
    bbox="-0.572668 -65 1343 480"
    underline-thickness="25.6"
    underline-position="-51.2"
    unicode-range="U+0020-F2D3"
  />
    <missing-glyph />
    <glyph glyph-name="space" unicode=" " horiz-adv-x="200" 
 />
    <glyph glyph-name="abandoned-call" unicode="&#xf1e5;" horiz-adv-x="495" 
d="M484 223c7 -7 11 -17 11 -27s-4 -19 -11 -26h-1l-146 -114c-7 -7 -17 -10 -26 -10c-10 0 -19 4 -26 11l-5 4v85h-64l-177 -120l-18 27l451 305l18 -27l-78 -53l71 -55h1zM463 192c1 2 2 4 2 5s-1 2 -2 4l-77 60l-126 -85h50v-100c2 0 4 0 6 2l1 1zM121 146v0h-85
c-20 0 -36 15 -36 35v39c0 20 16 35 36 35h244v77l5 5c14 14 38 14 52 0l31 -24l-26 -18l-25 20h-1c-2 2 -4 2 -6 2v-44l-71 -48h-203c-3 0 -6 -2 -6 -5v-39c0 -3 3 -5 6 -5h130z" />
    <glyph glyph-name="account" unicode="&#xf100;" horiz-adv-x="474" 
d="M179 219l-93 93l-39 15l-38 70l31 31l69 -46l8 -39l93 -93zM257 117c0 0 61 59 93 32s116 -117 116 -117s20 -27 -8 -54s-54 -16 -54 -16zM32 13c0 -15 12 -28 27 -28s27 13 27 28s-12 27 -27 27s-27 -12 -27 -27zM389 312l85 31s-42 -72 -70 -86l23 -46
s-104 -14 -147 -39c0 0 -188 -197 -204 -210s-44 -10 -67 16s7 62 7 62s48 54 171 147c0 0 75 55 85 117s24 93 24 93s43 52 139 16l-54 -31s-25 -12 -16 -31s24 -39 24 -39z" />
    <glyph glyph-name="add-attachment" unicode="&#xf26a;" horiz-adv-x="467" 
d="M282 277l-145 -144c-8 -8 -8 -21 0 -29s21 -8 29 0l19 19c-2 -9 -2 -18 -2 -28s0 -19 2 -28c-24 -16 -56 -13 -77 8c-24 24 -24 63 0 87l145 144zM70 38c35 -35 90 -39 129 -12c6 -12 14 -24 23 -34c-55 -38 -131 -32 -180 17c-56 56 -56 145 0 201v1v0l182 182
c40 40 104 40 144 0s40 -105 0 -145l-2 -1c-10 2 -19 3 -29 3s-19 -1 -28 -3l30 30c24 24 24 63 0 87s-62 24 -86 0l-182 -182v0h-1c-40 -40 -40 -104 0 -144zM337 225c72 0 130 -58 130 -130s-58 -130 -130 -130s-130 58 -130 130s58 130 130 130zM417 19
c19 20 31 46 31 76c0 61 -50 111 -111 111s-111 -50 -111 -111s50 -111 111 -111c25 0 48 8 66 22c10 36 -2 76 -74 74v-49l-77 75l77 74v-48c87 2 111 -59 88 -113z" />
    <glyph glyph-name="add-call" unicode="&#xf21f;" horiz-adv-x="468" 
d="M232 139l63 -108c2 -4 1 -9 -3 -12c-1 -1 -32 -19 -33 -20l-2 -1c-6 -4 -15 -9 -26 -11v0c-51 -12 -106 37 -170 147c-95 165 -61 215 -20 240l1 1s19 12 28 17l5 2c2 1 4 2 6 1s5 -2 6 -4l62 -108c1 -2 2 -5 1 -7c0 -2 -2 -4 -4 -5l-32 -19c-5 -3 -6 -20 5 -48
c19 -47 54 -84 68 -81h1c2 1 23 14 30 18l2 1c4 2 10 1 12 -3zM468 252v-42h-110v-110h-40v110h-110v42h110v108h40v-108h110z" />
    <glyph glyph-name="add-people" unicode="&#xf26b;" horiz-adv-x="453" 
d="M349 174c57 0 104 -47 104 -104s-47 -104 -104 -104s-104 47 -104 104s47 104 104 104zM349 -15c47 0 85 38 85 85s-38 85 -85 85s-85 -38 -85 -85s38 -85 85 -85zM402 78c5 0 10 -4 10 -9s-5 -10 -10 -10h-43v-42c0 -5 -4 -10 -9 -10s-10 5 -10 10v42h-42
c-5 0 -10 5 -10 10s5 9 10 9h42v43c0 5 5 9 10 9s9 -4 9 -9v-43h43zM256 264c-2 -1 -3 -4 -4 -6c-5 -18 -13 -34 -24 -45c-2 -2 -3 -4 -3 -6v-19v-2c4 -12 8 -14 27 -24c5 -2 11 -1 13 4s1 10 -4 12c-14 8 -16 9 -17 12v13c11 12 20 28 26 47c7 6 12 14 13 24s0 20 -6 28v37
c0 51 -32 80 -87 80c-54 0 -87 -30 -87 -80v-37c-5 -8 -7 -17 -6 -27c1 -9 6 -19 13 -25c6 -19 15 -35 26 -47v-12c-3 -5 -21 -22 -122 -61c-8 -3 -14 -12 -14 -21v-45c0 -12 10 -22 22 -22h194c5 0 10 4 10 9s-5 10 -10 10h-194c-2 0 -3 1 -3 3v45c0 1 1 3 2 3
c111 43 130 62 134 74v2v19c0 2 -1 4 -3 6c-11 11 -19 27 -24 45c-1 2 -2 5 -4 6c-4 3 -7 8 -8 13c-1 6 0 11 4 15c1 2 2 4 2 6v41c0 39 24 61 68 61c45 0 68 -21 68 -61v-41c0 -2 1 -4 2 -6c4 -4 5 -9 4 -15c-1 -5 -4 -10 -8 -13z" />
    <glyph glyph-name="add-section" unicode="&#xf273;" horiz-adv-x="455" 
d="M228 419c125 0 227 -102 227 -227s-102 -228 -227 -228c-126 0 -228 103 -228 228s103 227 228 227zM228 -4c108 0 195 88 195 196s-87 194 -195 194s-196 -86 -196 -194s88 -196 196 -196zM326 207h-78v78c0 10 -8 18 -18 18s-18 -8 -18 -18v-78h-78
c-10 0 -18 -8 -18 -18s8 -18 18 -18h78v-78c0 -10 8 -18 18 -18s18 8 18 18v78h78c10 0 18 8 18 18s-8 18 -18 18z" />
    <glyph glyph-name="agent" unicode="&#xf101;" horiz-adv-x="465" 
d="M250 31l10 -34v-2l-9 -49c0 -2 -1 -2 -3 -2h-31c-2 0 -4 0 -4 2l-8 48v2l10 36c0 2 2 2 4 2s3 -1 4 -1c3 0 5 -1 10 -1s6 1 9 1c1 0 3 1 5 1s3 -1 3 -3zM462 -5c2 -2 3 -4 3 -7v-35c0 -5 -4 -10 -9 -10h-180l48 88l-23 50v0h5c2 0 4 0 5 -1c56 -14 108 -43 151 -85z
M165 81l-24 -51l47 -87h-178c-5 0 -10 5 -10 10v35c0 3 1 5 3 7c44 43 97 72 155 86h2h4h1zM289 106c0 -1 -1 -2 -1 -3c-3 -5 -25 -50 -55 -50v0h-1c-30 1 -53 45 -56 50v3v31c-19 19 -38 47 -40 75h-1c-10 0 -18 8 -18 19c0 8 5 15 11 18c-4 11 -6 23 -6 36
c0 61 53 111 111 111s105 -50 105 -111c0 -13 -2 -25 -6 -36c6 -3 11 -10 11 -18c0 -11 -8 -19 -18 -19h-1c-1 -14 -4 -27 -10 -40c-13 -8 -28 -14 -44 -17c-3 4 -8 6 -13 6h-27c-9 0 -16 -7 -16 -16s7 -16 16 -16h27c7 0 13 5 15 12c10 2 19 4 28 8c-3 -5 -7 -9 -11 -13
v-30zM337 215h4c7 0 12 6 12 13v-2c12 22 19 46 19 71c0 79 -64 143 -142 143s-142 -64 -142 -143c0 -25 6 -50 18 -71v2c0 -7 6 -13 13 -13h-1c7 0 13 6 13 13v67c0 7 -6 12 -13 12h1c-2 0 -16 0 -18 -1c5 60 68 127 129 127s124 -67 129 -127c-2 1 -16 1 -18 1h-6
c-7 0 -12 -5 -12 -12v-67c0 -7 5 -13 12 -13h-13z" />
    <glyph glyph-name="agent-fchat-off" unicode="&#xf1b0;" horiz-adv-x="472" 
d="M424 363c30 -34 48 -76 48 -123c0 -27 -6 -53 -17 -77c-26 -56 -80 -98 -146 -115l-133 -105v107c-16 5 -31 11 -45 18l-108 -109l-23 23l439 442l23 -23zM370 407l-295 -297c-34 35 -55 80 -55 130c0 110 101 200 226 200c46 0 88 -12 124 -33z" />
    <glyph glyph-name="agent-fchat-on" unicode="&#xf280;" horiz-adv-x="452" 
d="M434 163v0v0c-26 -56 -80 -98 -146 -115l-133 -105v107c-90 26 -155 101 -155 190c0 110 101 200 226 200s226 -90 226 -200c0 -27 -7 -53 -18 -77z" />
    <glyph glyph-name="agent_summary" unicode="&#xf21a;" horiz-adv-x="480" 
d="M431 0h-97v17h97v-17zM431 32h-97v18h97v-18zM431 64h-97v18h97v-18zM407 163h-98v-193h148v143h-50v50zM421 186l59 -59v-180h-195v239h136zM187 123l8 -27v-1l-7 -38c0 -1 -1 -2 -2 -2h-24c-1 0 -2 1 -2 2l-7 37v1l8 28c0 1 2 1 3 1h3c2 0 3 -1 7 -1s5 1 7 1h4
c1 0 2 0 2 -1zM123 161l-17 -39l35 -67h-134c-4 0 -7 4 -7 8v27c0 2 0 3 2 5c33 33 73 56 116 66h2h3v0zM216 180v0v-2c-2 -4 -20 -39 -42 -39v0c-22 0 -40 35 -42 39c0 1 -1 1 -1 2v24c-14 15 -27 36 -29 57h-1c-3 0 -6 1 -8 3c-1 -1 -2 -1 -4 -1c-5 0 -9 5 -9 10v-1
c-9 16 -14 35 -14 54c0 60 47 110 106 110s106 -49 106 -110c0 -19 -5 -38 -14 -55v1c0 -5 -4 -9 -9 -9h-4h-1c-2 -1 -5 -2 -7 -2h-1c-1 -11 -4 -21 -8 -31c-10 -6 -20 -11 -32 -13c-2 3 -6 5 -10 5h-20c-7 0 -12 -5 -12 -12s5 -13 12 -13h20c6 0 11 4 12 9c7 2 13 4 20 7
c-2 -4 -5 -7 -8 -10v-23zM93 333v0c8 39 43 69 81 69s69 -29 77 -68h4c2 0 12 0 13 -1c-4 46 -50 97 -96 97s-92 -51 -96 -97c1 1 11 1 13 1s3 0 4 -1zM254 153v0v-98h-48l36 68l-17 38v0h4c1 0 3 0 4 -1c7 -2 14 -4 21 -7z" />
    <glyph glyph-name="alert" unicode="&#xf201;" horiz-adv-x="502" 
d="M502 7c3 -25 -15 -45 -38 -45h-426c-15 0 -27 6 -34 20c-2 3 -3 6 -4 10v14c4 9 8 19 13 28c70 124 140 246 210 370c5 9 12 14 21 17c1 0 3 1 4 1h11c7 -2 13 -5 18 -10c2 -2 4 -3 5 -5c70 -125 140 -252 210 -377c4 -8 9 -14 10 -23zM272 7v42h-42v-42h42zM271 115
l5 174h-51l6 -174h40z" />
    <glyph glyph-name="align-center" unicode="&#xf237;" horiz-adv-x="427" 
d="M0 298v63h427v-63h-427zM0 24v62h427v-62h-427zM76 161v63h276v-63h-276z" />
    <glyph glyph-name="align-justify" unicode="&#xf238;" horiz-adv-x="428" 
d="M1 298v63h427v-63h-427zM1 24v62h427v-62h-427zM0 161v62h428v-62h-428z" />
    <glyph glyph-name="align-left" unicode="&#xf239;" horiz-adv-x="427" 
d="M0 298v63h427v-63h-427zM0 24v62h427v-62h-427zM0 161v63h276v-63h-276z" />
    <glyph glyph-name="align-right" unicode="&#xf261;" horiz-adv-x="427" 
d="M0 298v63h427v-63h-427zM0 24v62h427v-62h-427zM151 161v63h276v-63h-276z" />
    <glyph glyph-name="all-streams" unicode="&#xf102;" horiz-adv-x="343" 
d="M256 120v36c-118 8 -175 70 -222 170l45 -6l20 37c37 -78 77 -122 157 -129v36l87 -72zM343 192l-87 -72v36c-80 -7 -120 -51 -157 -129l-20 37l-45 -6c47 100 104 162 222 170v36zM144 228v-73h-144l25 36l-25 37h144z" />
    <glyph glyph-name="android" unicode="&#xf103;" horiz-adv-x="448" 
d="M416 288c18 0 32 -14 32 -32v-128c0 -18 -14 -32 -32 -32s-32 14 -32 32v128c0 18 14 32 32 32zM32 288c18 0 32 -14 32 -32v-128c0 -18 -14 -32 -32 -32s-32 14 -32 32v128c0 18 14 32 32 32zM80 80v176h288v-176c0 -27 -21 -48 -48 -48h-16v-64c0 -18 -14 -32 -32 -32
s-32 14 -32 32v64h-32v-64c0 -18 -14 -32 -32 -32s-32 14 -32 32v64h-16c-27 0 -48 21 -48 48zM283 403v0c45 -20 78 -64 84 -115h-286c6 51 39 94 84 115l-21 39c-1 2 0 5 2 6s5 0 6 -2l20 -40c16 6 34 10 52 10s36 -4 52 -10l20 40c1 2 4 3 6 2s3 -4 2 -6zM160 313
c13 0 23 10 23 23s-10 23 -23 23s-23 -10 -23 -23s10 -23 23 -23zM288 313c13 0 23 10 23 23s-10 23 -23 23s-23 -10 -23 -23s10 -23 23 -23z" />
    <glyph glyph-name="announcement-new" unicode="&#xf2a7;" horiz-adv-x="478" 
d="M239 -47c-132 0 -239 107 -239 239s107 239 239 239s239 -107 239 -239s-107 -239 -239 -239zM332 297c-33 -28 -77 -39 -105 -39v0h-74c-9 0 -17 -8 -17 -17c-5 0 -8 -3 -8 -8v-41c0 -5 3 -9 8 -9c0 -9 8 -16 17 -16v-7c0 -3 2 -4 5 -4l19 3l15 -77c1 -6 6 -9 12 -9h37
c2 0 4 2 4 4s-2 4 -4 4s-4 1 -4 3l-17 82l3 1h1h3c28 0 72 -12 105 -40v-1c0 -2 2 -4 4 -4h4c2 0 4 2 4 4v67l6 2c4 1 7 4 7 8v19c0 4 -3 7 -7 8l-6 1v68c0 2 -2 4 -4 4h-4c-2 0 -4 -2 -4 -4v-2z" />
    <glyph glyph-name="announcements" unicode="&#xf29e;" horiz-adv-x="478" 
d="M239 -47c-132 0 -239 107 -239 239s107 239 239 239s239 -107 239 -239s-107 -239 -239 -239zM144 176c-9 0 -16 7 -16 16v0c-5 0 -9 3 -9 8v41c0 5 4 9 9 9v0c0 9 7 16 16 16h83v-90h-83v-16c0 -3 2 -4 5 -4l19 3l15 -77c1 -6 7 -9 13 -9h36c2 0 5 2 5 4s-3 4 -5 4
s-4 1 -4 3l-16 82l3 1c2 0 3 2 3 4v5h-74v0zM346 202v0l6 1c4 1 6 4 6 8v20c0 4 -2 7 -6 8l-6 1v67c0 2 -2 4 -4 4h-4c-2 0 -4 -2 -4 -4v-173c0 -2 2 -4 4 -4h4c2 0 4 2 4 4v68zM227 266v-90c29 0 74 -13 107 -42v173c-33 -29 -78 -41 -107 -41z" />
    <glyph glyph-name="answer-checked" unicode="&#xf104;" horiz-adv-x="453" 
d="M10 -17c-5 0 -10 6 -10 11v322c0 5 5 10 10 10h323c5 0 10 -5 10 -10v-82l-31 -30v91v0h-281v0v-280v0h281v0v74l31 31v-127c0 -5 -5 -10 -10 -10h-323v0zM436 288c5 0 9 -1 12 -4s5 -8 5 -13s-2 -10 -5 -13l-217 -218c-3 -3 -8 -4 -13 -4s-10 1 -13 4l-109 109
c-3 3 -4 7 -4 13c0 5 1 10 4 13s8 5 13 5s10 -2 13 -5l91 -93c2 -2 5 -2 7 0l203 200c3 5 7 6 13 6z" />
    <glyph glyph-name="answer-unchecked" unicode="&#xf105;" horiz-adv-x="399" 
d="M10 -17c-5 0 -10 6 -10 11v322c0 5 5 10 10 10h323c5 0 10 -5 10 -10v-40l-31 -34v53v0h-281v0v-280v0h281v0v47l31 -32v-37c0 -5 -5 -10 -10 -10h-323v0zM378 36c-5 0 -11 1 -15 5v1l-72 81l-71 -81v-1c-4 -4 -10 -5 -15 -5c-6 0 -11 2 -15 6s-6 9 -6 15s2 11 6 15v0
l73 83l-73 83v0c-4 4 -6 9 -6 15s2 11 6 15s9 6 15 6c5 0 11 -2 15 -6v0l71 -81l72 81v0c4 4 10 6 15 6c6 0 10 -2 14 -6s7 -9 7 -15s-3 -11 -7 -15v0l-73 -83l73 -83v0c4 -4 7 -9 7 -15s-3 -11 -7 -15s-8 -6 -14 -6z" />
    <glyph glyph-name="apple" unicode="&#xf106;" horiz-adv-x="417" 
d="M348 176c1 -77 68 -104 69 -104c-1 -2 -11 -36 -36 -72c-21 -31 -43 -62 -78 -63c-34 -1 -45 20 -84 20s-52 -20 -84 -21c-34 -1 -59 34 -81 65c-44 64 -78 180 -33 258c22 39 63 63 106 64c33 1 65 -22 85 -22s58 27 98 23c17 -1 63 -7 93 -51c-2 -2 -56 -32 -55 -97z
M284 366v0c-18 -22 -47 -38 -76 -36c-4 29 10 60 27 79c18 22 49 38 75 39c3 -30 -8 -60 -26 -82z" />
    <glyph glyph-name="apps" unicode="&#xf213;" horiz-adv-x="488" 
d="M369 -27c0 -6 -7 -11 -13 -8l-93 47c-3 2 -5 5 -5 8v109c0 6 7 11 13 8l93 -47c3 -2 5 -4 5 -7v-110zM484 12l-96 -48c-5 -3 -11 1 -11 7v112c0 3 2 6 5 7l95 48c5 3 11 -1 11 -7v-112c0 -3 -1 -6 -4 -7zM275 144c-5 3 -5 10 0 13l95 47c2 1 4 1 6 0l95 -47
c5 -3 5 -10 0 -13l-95 -47c-2 -1 -4 -1 -6 0zM240 188c0 -6 -7 -11 -13 -8l-93 47c-3 2 -5 5 -5 8v109c0 6 7 11 13 8l93 -47c3 -2 5 -4 5 -7v-110zM355 227l-96 -48c-5 -3 -11 1 -11 7v112c0 3 1 6 4 7l96 48c5 3 11 -1 11 -7v-112c0 -3 -1 -6 -4 -7zM146 359
c-5 3 -5 10 0 13l95 47c2 1 4 1 6 0l95 -47c5 -3 5 -10 0 -13l-95 -47c-2 -1 -4 -1 -6 0zM111 -27c0 -6 -7 -11 -13 -8l-93 47c-3 2 -5 5 -5 8v109c0 6 7 11 13 8l93 -47c3 -2 5 -4 5 -7v-110zM226 12l-96 -48c-5 -3 -11 1 -11 7v112c0 3 2 6 5 7l95 48c5 3 11 -1 11 -7
v-112c0 -3 -1 -6 -4 -7zM17 144c-5 3 -5 10 0 13l95 47c2 1 4 1 6 0l95 -47c5 -3 5 -10 0 -13l-95 -47c-2 -1 -4 -1 -6 0zM87 232v18h17v-18h-17zM383 232v18h17v-18h-17zM235 -27v19h18v-19h-18z" />
    <glyph glyph-name="archived-ticket" unicode="&#xf203;" horiz-adv-x="504" 
d="M147 178l118 118l44 -44c-57 -15 -102 -62 -116 -120zM353 244c83 0 151 -67 151 -150s-68 -151 -151 -151s-151 68 -151 151s68 150 151 150zM353 -37c72 0 131 59 131 131s-59 130 -131 130s-130 -58 -130 -130s58 -131 130 -131zM88 178l102 -101c3 -25 10 -48 23 -68
l-26 -27c-14 -14 -36 -14 -50 0l-34 34l15 15c8 8 12 17 12 29c0 23 -19 42 -42 42c-12 0 -21 -4 -29 -12l-15 -15l-34 34c-14 14 -14 36 0 50l274 274c14 14 36 14 50 0l34 -34l-15 -15c-8 -8 -12 -17 -12 -29c0 -23 19 -42 42 -42c12 0 21 4 29 12l15 15l34 -34
c14 -14 14 -36 0 -50l-24 -23c-22 14 -47 22 -74 24l-98 98zM407 69c6 -5 7 -16 1 -22c-5 -6 -15 -7 -21 -1l-45 37c-4 4 -5 8 -5 13v84c0 8 8 15 16 15s15 -7 15 -15v-78z" />
    <glyph glyph-name="arrow-click" unicode="&#xf1b7;" horiz-adv-x="326" 
d="M326 135c-35 0 -71 -7 -106 -19l67 -150l-41 -18l-68 150c-33 -17 -60 -40 -84 -66l10 290zM106 341c-4 0 -7 3 -7 7v83c0 4 3 7 7 7s7 -3 7 -7v-83c0 -4 -3 -7 -7 -7zM83 339c3 -2 4 -6 2 -10s-6 -5 -10 -3l-71 42c-4 2 -5 6 -3 10s6 4 10 2zM75 308c4 2 8 1 10 -3
s2 -8 -2 -10l-72 -41c-4 -2 -8 -2 -10 2s-1 8 3 10zM136 326c-4 -2 -8 -1 -10 3s-1 8 3 10l72 41c4 2 8 2 10 -2s1 -8 -3 -10z" />
    <glyph glyph-name="arrow-down" unicode="&#xf107;" horiz-adv-x="297" 
d="M289 229c-10 -11 -120 -115 -120 -115c-6 -6 -14 -9 -21 -9s-14 3 -20 9c0 0 -110 104 -120 115s-11 30 0 41s26 12 40 0l100 -96l100 96c14 12 30 11 41 0s10 -30 0 -41v0z" />
    <glyph glyph-name="arrow-down-2" unicode="&#xf108;" horiz-adv-x="384" 
d="M9 137c-12 12 -12 34 0 46c6 6 15 9 23 9s17 -3 23 -9l105 -106v307c0 18 14 32 32 32s32 -14 32 -32v-307l105 106c12 12 34 12 46 0s12 -34 0 -46l-160 -160c-12 -12 -34 -12 -46 0z" />
    <glyph glyph-name="arrow-left" unicode="&#xf109;" horiz-adv-x="174" 
d="M124 332c11 10 30 11 41 0s12 -26 0 -40l-96 -100l96 -100c12 -14 11 -29 0 -40s-30 -10 -41 0s-115 120 -115 120c-6 6 -9 13 -9 20s3 14 9 20c0 0 104 110 115 120z" />
    <glyph glyph-name="arrow-left-2" unicode="&#xf10a;" horiz-adv-x="448" 
d="M169 375c12 12 34 12 46 0c6 -6 9 -15 9 -23s-3 -17 -9 -23l-106 -105h307c18 0 32 -14 32 -32s-14 -32 -32 -32h-307l106 -105c12 -12 12 -34 0 -46s-34 -12 -46 0l-160 160c-12 12 -12 34 0 46z" />
    <glyph glyph-name="arrow-right" unicode="&#xf10b;" horiz-adv-x="174" 
d="M50 332c11 -10 116 -120 116 -120c6 -6 8 -13 8 -20s-2 -14 -8 -20c0 0 -105 -110 -116 -120s-30 -11 -41 0s-12 26 0 40l96 100l-96 100c-12 14 -11 29 0 40s30 10 41 0v0z" />
    <glyph glyph-name="arrow-right-2" unicode="&#xf10c;" horiz-adv-x="448" 
d="M279 9c-12 -12 -34 -12 -46 0c-6 6 -9 15 -9 23s3 17 9 23l106 105h-307c-18 0 -32 14 -32 32s14 32 32 32h307l-106 105c-12 12 -12 34 0 46s34 12 46 0l160 -160c12 -12 12 -34 0 -46z" />
    <glyph glyph-name="arrow-up" unicode="&#xf10d;" horiz-adv-x="297" 
d="M289 155v0c10 -11 11 -30 0 -41s-27 -12 -41 0l-100 96l-100 -96c-14 -12 -29 -11 -40 0s-10 30 0 41s120 115 120 115c6 6 13 9 20 9s15 -3 21 -9c0 0 110 -104 120 -115z" />
    <glyph glyph-name="arrow-up-2" unicode="&#xf10e;" horiz-adv-x="384" 
d="M375 247c12 -12 12 -34 0 -46c-6 -6 -15 -9 -23 -9s-17 3 -23 9l-105 106v-307c0 -18 -14 -32 -32 -32s-32 14 -32 32v307l-105 -106c-12 -12 -34 -12 -46 0s-12 34 0 46l160 160c12 12 34 12 46 0z" />
    <glyph glyph-name="arrows-alt" unicode="&#xf23b;" horiz-adv-x="384" 
d="M0 311c0 79 -8 71 73 71h49c10 0 17 -2 21 -12c3 -9 -1 -16 -6 -23c-26 -33 -26 -33 4 -63c12 -12 23 -22 34 -34c10 -11 18 -14 30 -1c17 19 36 36 54 53c11 11 11 20 0 31c-10 10 -28 20 -20 38s27 11 42 11c24 1 49 0 73 0c16 0 28 -7 28 -24c1 -33 0 -64 0 -97
c0 -9 -3 -18 -13 -22s-17 0 -24 7c-5 5 -10 10 -15 16c-9 10 -17 10 -27 0c-19 -20 -39 -40 -59 -59c-8 -8 -8 -14 0 -22c20 -20 41 -40 61 -61c10 -10 16 -8 26 1c11 10 20 30 39 21c18 -8 13 -28 13 -44c1 -24 1 -47 0 -71c0 -19 -11 -28 -30 -28h-90c-10 0 -21 3 -25 13
c-5 11 3 19 10 26c25 28 25 28 -2 55c-14 14 -28 27 -41 41c-10 10 -18 12 -28 1c-19 -20 -39 -40 -59 -59c-8 -8 -11 -14 -1 -22l7 -7c9 -11 27 -18 18 -36c-8 -16 -26 -12 -40 -12h-70c-21 0 -33 9 -32 31c1 30 1 60 1 90c0 9 0 18 10 23c11 5 19 -2 26 -9
c28 -26 28 -25 55 2c14 14 27 28 42 41c12 11 11 19 -1 30c-19 17 -36 34 -53 53c-11 12 -19 11 -30 0c-10 -10 -20 -29 -38 -21s-10 28 -11 42c-1 10 -1 20 -1 30z" />
    <glyph glyph-name="arrows-v" unicode="&#xf23c;" horiz-adv-x="158" 
d="M111 192v-119c0 -5 1 -6 6 -6c9 0 18 0 27 -1c13 -2 19 -16 11 -26l-4 -4l-57 -57c-10 -10 -19 -10 -29 0l-59 59c-5 5 -7 11 -5 18c2 6 7 9 14 10c2 0 5 1 7 1h20c4 0 5 1 5 5v240c0 4 -1 5 -5 5h-25s-13 4 -16 11s0 13 5 18c20 20 40 41 61 61c8 8 16 8 24 0
c20 -20 42 -41 62 -61c5 -5 7 -11 4 -18s-8 -11 -16 -11h-22c-8 0 -8 1 -8 -7v-118z" />
    <glyph glyph-name="article" unicode="&#xf204;" horiz-adv-x="390" 
d="M265 436l123 -117h-123v117zM258 283h132v-22v-39v-272h-137h-44h-209v488h226v-125v-30h32zM320 21v0v35h-234v-35h234zM320 104v0v34h-234v-34h234zM320 186v0v35h-234v-35h234z" />
    <glyph glyph-name="assign-to" unicode="&#xf291;" horiz-adv-x="376" 
d="M314 79h43c11 0 19 -9 19 -20v0v0c0 -11 -8 -19 -19 -19h-43v-42c0 -11 -8 -19 -19 -19s-19 8 -19 19v42h-42c-11 0 -19 8 -19 19s8 20 19 20h42v42c0 11 8 19 19 19s19 -8 19 -19v-42zM183 174c-61 0 -111 49 -111 111s50 112 111 112s111 -50 111 -112
s-50 -111 -111 -111zM183 213c40 0 72 32 72 72s-32 73 -72 73s-72 -33 -72 -73s32 -72 72 -72zM39 11c0 -11 -9 -19 -20 -19s-19 8 -19 19c0 73 63 132 140 132h80c11 0 19 -8 19 -19s-8 -19 -19 -19h-80c-56 0 -101 -43 -101 -94z" />
    <glyph glyph-name="attachment" unicode="&#xf22d;" horiz-adv-x="392" 
d="M277 275l-142 -142c-8 -8 -8 -21 0 -29s21 -8 29 0l170 171c24 24 24 61 0 85s-61 24 -85 0l-179 -179v0v0c-39 -39 -39 -102 0 -141s102 -39 141 0v0v0l122 122l29 -28l-123 -122v0v-1c-55 -55 -143 -55 -198 0s-55 143 0 198v1v0l179 178c39 39 103 39 142 0
s39 -103 0 -142l-170 -170c-24 -24 -61 -24 -85 0s-24 61 0 85l142 142z" />
    <glyph glyph-name="attachment-blank" unicode="&#xf229;" horiz-adv-x="446" 
d="M266 321v127h-234c-18 0 -32 -14 -32 -32v-159v-271v-16c0 -18 14 -32 32 -32h382c18 0 32 14 32 32v298h-127c-29 0 -53 24 -53 53zM287 321v127l159 -159h-127c-18 0 -32 14 -32 32z" />
    <glyph glyph-name="available-on-mobile" unicode="&#xf1b6;" horiz-adv-x="412" 
d="M357 391c30 0 55 -25 55 -55v-233v-41v-69h-233v69v41v44l41 31v-75h151v233h-151v-89l-41 31v58c0 30 25 55 55 55h123zM295 20c11 0 21 10 21 21s-10 21 -21 21s-20 -10 -20 -21s9 -21 20 -21zM132 293l85 -83l-85 -83c-8 -8 -20 -8 -28 0s-8 19 0 27l37 36h-121
c-6 0 -10 2 -14 6s-6 9 -6 14c0 11 9 19 20 19h121l-37 36c-8 8 -8 20 0 28s20 8 28 0z" />
    <glyph glyph-name="bar-chart" unicode="&#xf281;" 
d="M149 43h-128v234h128v-234zM320 427v-384h-128v384h128zM491 192v-149h-128v149h128zM512 0v-43h-512v43h512z" />
    <glyph glyph-name="bars" unicode="&#xf23d;" horiz-adv-x="435" 
d="M218 228h195c15 0 22 -7 22 -22v-31c0 -12 -7 -19 -19 -20c-2 0 -3 -1 -5 -1h-386c-4 0 -9 0 -13 2c-8 3 -12 10 -12 18v34c0 12 8 20 20 20h128h70zM218 300h-196c-16 0 -22 6 -22 22v31c0 12 7 19 19 20h4h389c3 0 7 0 10 -1c8 -3 13 -10 13 -18v-34
c0 -13 -7 -20 -20 -20h-108h-89zM217 10h-195c-16 0 -22 6 -22 22v32s7 17 17 19c2 0 5 1 7 1h387c7 0 15 -1 20 -7c3 -4 4 -8 4 -13v-34c0 -12 -8 -20 -20 -20h-198z" />
    <glyph glyph-name="bell" unicode="&#xf10f;" horiz-adv-x="347" 
d="M228 330c81 -47 34 -201 119 -228v-36h-347v36c85 27 38 181 119 228c11 6 18 19 18 32v0c0 20 17 36 37 36s36 -16 36 -36v0c0 -13 7 -26 18 -32zM174 376c-8 0 -15 -6 -15 -14s7 -15 15 -15s14 7 14 15s-6 14 -14 14zM224 36c0 -27 -23 -50 -50 -50s-49 23 -49 50h99z
" />
    <glyph glyph-name="billing" unicode="&#xf110;" horiz-adv-x="499" 
d="M361 382l25 -78h-25l-8 24c-19 -2 -37 7 -46 24l-142 -48h-74l253 86c7 2 15 -1 17 -8zM1 260c-2 7 1 14 8 16l57 20c-5 -5 -8 -12 -8 -20v-31c-4 -10 -11 -18 -20 -24l20 -62v-77zM378 187c12 0 22 -10 22 -22s-10 -22 -22 -22s-22 10 -22 22s10 22 22 22zM146 187
c12 0 21 -10 21 -22s-9 -22 -21 -22s-22 10 -22 22s10 22 22 22zM262 248c39 0 71 -37 71 -83s-32 -83 -71 -83s-71 37 -71 83s32 83 71 83zM268 128c16 3 25 12 25 23s-6 18 -23 23c-11 4 -15 6 -15 9s2 5 10 5c10 0 16 -3 20 -4l4 16c-5 2 -11 4 -20 4v10h-15v-11
c-15 -3 -23 -12 -23 -23c0 -12 10 -18 24 -22c10 -3 14 -5 14 -9s-4 -6 -11 -6c-9 0 -18 3 -24 6l-4 -17c5 -2 14 -5 23 -5v-12h15v13zM347 48c0 -4 1 -7 2 -10h-264c-7 0 -13 7 -13 14v224c0 7 6 13 13 13h354c7 0 13 -6 13 -13v-134h-24v85c-19 4 -33 19 -36 38h-260
c-4 -19 -18 -34 -36 -38v-128c18 -4 32 -18 36 -37h219c-3 -4 -4 -9 -4 -14zM375 104c-6 0 -12 5 -12 11v0c0 6 6 12 12 12v0h113c6 0 11 -6 11 -12v0c0 -6 -5 -11 -11 -11v0h-113v0zM370 70c-6 0 -12 6 -12 12v0c0 6 6 11 12 11v0h113c6 0 11 -5 11 -11v0
c0 -6 -5 -12 -11 -12v0h-113v0zM373 36c-6 0 -12 6 -12 12v0c0 6 6 12 12 12v0h113c6 0 11 -6 11 -12v0c0 -6 -5 -12 -11 -12v0h-113v0z" />
    <glyph glyph-name="blank-file" unicode="&#xf111;" horiz-adv-x="448" 
d="M414 354v0c19 -19 34 -56 34 -82v-288c0 -26 -22 -48 -48 -48h-352c-26 0 -48 22 -48 48v416c0 26 22 48 48 48h224c26 0 63 -15 82 -34zM288 380v0v-92h92c0 1 -1 2 -1 3c-4 9 -8 16 -10 18l-60 60c-2 2 -9 6 -18 10c-1 0 -2 1 -3 1zM384 0v256h-128v128h-192v-384h320z
" />
    <glyph glyph-name="blind-transfer" unicode="&#xf22f;" horiz-adv-x="505" 
d="M329 436v0l166 -202c13 -16 13 -41 0 -57l-169 -206c-13 -16 -34 -16 -47 0l-8 9c-13 16 -13 42 0 58l98 119l39 49l-36 45l-98 118c-13 16 -13 42 0 58l8 9c13 16 34 16 47 0zM68 436v0l166 -202c13 -16 13 -41 0 -57l-169 -206c-13 -16 -34 -16 -47 0l-8 9
c-13 16 -13 42 0 58l98 119l39 49l-36 45l-98 118c-13 16 -13 42 0 58l7 9c13 16 35 16 48 0z" />
    <glyph glyph-name="block" unicode="&#xf20c;" horiz-adv-x="481" 
d="M240 432c133 0 241 -107 241 -240s-108 -241 -241 -241s-240 108 -240 241s107 240 240 240zM50 192c0 -45 16 -86 42 -118l266 266c-32 26 -73 42 -118 42c-105 0 -190 -85 -190 -190zM240 2c105 0 190 85 190 190c0 45 -15 86 -41 118l-267 -267c32 -26 73 -41 118 -41
z" />
    <glyph glyph-name="blocked-call" unicode="&#xf20d;" horiz-adv-x="493" 
d="M310 47c-10 0 -19 4 -26 11l-5 4v84h-243c-20 0 -36 16 -36 35v38c0 19 16 35 36 35h243v76l5 4c14 14 37 14 51 1l146 -112l1 -1c7 -7 11 -16 11 -26s-4 -19 -11 -26h-1v-1l-146 -112c-7 -7 -16 -10 -25 -10zM309 77c2 0 4 0 6 2l1 1v0l146 112c1 2 1 3 1 4s0 2 -1 4
l-146 112l-1 1c-2 2 -4 2 -6 2v-91h-273c-3 0 -6 -3 -6 -6v-38c0 -3 3 -5 6 -5h273v-98z" />
    <glyph glyph-name="bold" unicode="&#xf23e;" horiz-adv-x="357" 
d="M267 215c18 -5 33 -11 47 -20c34 -23 47 -56 41 -96c-5 -34 -23 -59 -54 -75c-23 -12 -48 -19 -74 -21c-30 -2 -59 1 -89 1c-27 0 -55 -1 -82 -3c-17 -1 -33 -2 -50 -3c-4 0 -6 2 -6 6v8v5c0 4 2 6 6 7c11 2 21 4 32 6c9 1 14 7 16 16s2 18 2 27c0 39 1 77 0 116
c-1 28 0 55 -1 83c-1 23 -1 46 -3 69c-1 9 -2 11 -11 13c-11 3 -23 4 -35 5c-4 0 -5 3 -5 6v3v8c-1 4 1 6 5 6c10 0 19 1 29 1c24 1 50 1 74 2c35 2 69 2 104 2c29 0 57 -6 83 -22c38 -23 47 -68 34 -99c-5 -11 -12 -21 -22 -28s-21 -14 -33 -19c-2 -1 -5 -2 -8 -4zM137 118
c0 -18 -2 -44 1 -69c2 -16 1 -14 15 -18c22 -7 44 -4 66 2c27 8 44 27 49 55c1 8 2 16 2 24v13c-2 30 -23 56 -52 65c-9 3 -19 5 -28 5c-16 1 -31 2 -47 0c-5 0 -6 -2 -6 -7v-70zM137 275v-47c0 -3 1 -5 4 -5c21 -2 43 -3 64 3c12 3 24 8 32 17c17 19 19 42 15 65
s-19 36 -40 44c-22 8 -44 9 -67 6c-10 -1 -10 -2 -9 -12v-2c0 -24 2 -49 1 -69v0z" />
    <glyph glyph-name="book" unicode="&#xf112;" horiz-adv-x="461" 
d="M174 134v-35l-102 41v35zM174 240v-34l-102 41v34zM450 418v0c7 -5 11 -13 11 -21v-328c0 -10 -6 -20 -16 -24l-205 -81s-4 -2 -5 -2h-5h-5c-1 0 -5 2 -5 2l-204 81c-10 4 -16 14 -16 24v328c0 8 4 16 11 21s16 6 24 3l195 -79l196 79c8 3 17 2 24 -3zM205 14v0v287
l-164 65v-286zM420 79v287l-164 -65v-287zM389 175v-35l-102 -41v35zM389 281v-34l-102 -41v34z" />
    <glyph glyph-name="book-dark" unicode="&#xf22e;" horiz-adv-x="454" 
d="M390 391c3 -6 1 -14 -5 -17l-152 -71v0h-1v-1h-1h-3v0v0h-1v0h-1v0h-2h-1l-1 1v0v0l-152 71c-6 3 -8 11 -5 17v0c3 6 10 7 16 4l146 -68l147 68c6 3 13 2 16 -4v0zM441 354c6 2 13 -3 13 -10v-289c0 -4 -3 -8 -7 -9l-191 -56v0c-8 -3 -18 -5 -29 -5s-21 2 -29 5l-190 56
c-4 1 -8 5 -8 9v289c0 7 7 12 13 10l184 -65c8 -3 18 -5 30 -5c11 0 21 1 29 5v0zM238 27v0v212c0 7 -4 12 -11 12s-11 -5 -11 -12v-212c0 -6 4 -13 11 -13v0c6 0 11 6 11 13z" />
    <glyph glyph-name="book-hollow" unicode="&#xf1da;" horiz-adv-x="433" 
d="M225 259l208 105v-333l-204 -60c-1 0 -2 -1 -3 -1h-1v0c-3 0 -5 -1 -8 -1s-6 1 -9 1v0h-1c-1 0 -1 1 -2 1l-205 59v334l208 -105v0c2 -2 6 -3 9 -3s6 1 8 3v0zM28 317v-263l176 -54v230zM406 56v262l-176 -88v-230zM23 391c-6 3 -9 10 -6 16v0c3 6 10 9 16 6l184 -94
l183 94c6 3 13 0 16 -6v0c3 -6 0 -13 -6 -16l-188 -96c-2 -1 -3 -1 -5 -1s-4 0 -6 1z" />
    <glyph glyph-name="bot" unicode="&#xf2c3;" horiz-adv-x="513" 
d="M433 289c46 -5 80 -45 80 -93c0 -51 -40 -93 -90 -93h-6c-36 -52 -97 -84 -163 -84s-127 32 -163 84c-51 0 -91 42 -91 93c0 46 32 85 75 93c3 7 7 13 11 20l-44 43c-22 21 -22 57 0 78s57 21 79 0l48 -47c26 12 55 18 85 18c31 0 61 -7 88 -20l50 49c22 21 57 21 79 0
s22 -57 0 -78l-47 -46c3 -5 6 -11 9 -17v0zM381 310l67 65c9 9 9 23 0 32s-24 9 -33 0l-67 -67c-27 18 -59 29 -94 29c-33 0 -65 -10 -91 -27l-65 65c-9 9 -24 9 -33 0s-9 -23 0 -32l64 -62c-14 -16 -24 -35 -31 -56c-2 0 -6 1 -8 1c-32 0 -57 -28 -57 -62s25 -61 57 -61
c6 0 12 1 18 3c27 -52 82 -87 146 -87s120 37 147 89c7 -3 14 -5 22 -5c32 0 57 27 57 61s-25 62 -57 62c-4 0 -9 -1 -13 -2c-6 20 -16 38 -29 54v0zM256 101c-62 0 -111 49 -111 110s49 110 111 110s112 -49 112 -110s-50 -110 -112 -110zM256 133c44 0 79 35 79 78
s-35 77 -79 77s-78 -34 -78 -77s34 -78 78 -78z" />
    <glyph glyph-name="both-direction" unicode="&#xf267;" horiz-adv-x="475" 
d="M0 232v71h330v138l145 -209h-475zM475 152v-71h-331v-138l-144 209h475z" />
    <glyph glyph-name="broadcast-tracker" unicode="&#xf235;" horiz-adv-x="462" 
d="M293 325c31 -34 50 -75 55 -121c2 -17 2 -34 -4 -51c-11 -34 -41 -49 -75 -37c-6 2 -12 4 -18 8s-13 6 -20 6c-32 -2 -63 -11 -94 -20c1 -18 5 -33 14 -48s20 -27 36 -35c6 -3 7 -6 4 -12c-2 -4 -6 -8 -9 -11c-6 -5 -12 -11 -18 -15c-17 -12 -35 -9 -48 7
c-14 16 -21 34 -27 54c-4 13 -7 26 -11 39c-7 -3 -12 -7 -19 -8c-15 -3 -26 3 -36 14c-14 16 -23 35 -23 57c0 13 5 23 17 29c36 18 69 38 99 65c14 12 26 27 39 41c3 3 4 7 5 11c2 11 2 22 6 32c12 32 41 44 73 33c22 -7 39 -21 54 -38zM287 181c15 8 15 40 -1 72
s-42 51 -57 43s-14 -39 2 -71s41 -52 56 -44zM335 319c-4 9 5 17 14 15c21 -6 40 -21 49 -43s6 -46 -5 -65c-5 -8 -16 -8 -20 1v0c-1 3 -1 7 1 10c8 14 8 30 2 45s-17 26 -33 30c-4 1 -7 4 -8 7v0zM352 369c-3 8 3 18 12 16c38 -7 74 -32 90 -71s8 -82 -14 -114
c-5 -7 -17 -5 -20 3v0c-2 4 0 8 2 11c18 26 24 60 11 91s-42 52 -73 57c-4 1 -6 3 -8 7v0z" />
    <glyph glyph-name="building" unicode="&#xf226;" horiz-adv-x="390" 
d="M238 -30h-226c-7 0 -12 5 -12 12v380c0 7 5 13 12 13l226 36v0c7 0 12 -6 12 -13v-416c0 -7 -5 -12 -12 -12zM12 366c-2 0 -3 -2 -3 -4v-380c0 -2 1 -3 3 -3h226c2 0 4 1 4 3v416c0 2 -2 4 -4 4l-225 -36h-1zM381 -30h-130c-5 0 -9 5 -9 10v262c0 5 4 9 9 9h1l129 -23
c5 0 9 -4 9 -9v-240c0 -5 -4 -9 -9 -9zM251 -21h130v0v240v1h-1l-129 22v0v-262v-1zM149 280h-46c-6 0 -11 5 -11 11v39c0 6 5 11 11 11h46c6 0 11 -5 11 -11v-39c0 -6 -5 -11 -11 -11zM103 332c-1 0 -2 -1 -2 -2v-39c0 -1 1 -2 2 -2h46c1 0 2 1 2 2v39c0 1 -1 2 -2 2h-46z
M149 195h-46c-6 0 -11 5 -11 11v39c0 6 5 10 11 10h46c6 0 11 -4 11 -10v-39c0 -6 -5 -11 -11 -11zM103 247c-1 0 -2 -1 -2 -2v-39c0 -1 1 -2 2 -2h46c1 0 2 1 2 2v39c0 1 -1 2 -2 2h-46zM149 110h-46c-6 0 -11 4 -11 10v39c0 6 5 11 11 11h46c6 0 11 -5 11 -11v-39
c0 -6 -5 -10 -11 -10zM103 161c-1 0 -2 -1 -2 -2v-39c0 -1 1 -2 2 -2h46c1 0 2 1 2 2v39c0 1 -1 2 -2 2h-46zM160 -30h-68v94c0 6 5 11 11 11h46c6 0 11 -5 11 -11v-94v0zM101 -21h50v85c0 1 -1 2 -2 2h-46c-1 0 -2 -1 -2 -2v-85zM310 143v30h9v-30h-9zM310 78v30h9v-30h-9z
M310 -26v59h9v-59h-9z" />
    <glyph glyph-name="bulb" unicode="&#xf113;" horiz-adv-x="284" 
d="M142 400c78 0 142 -64 142 -142c0 -52 -48 -108 -65 -156c-26 -72 -22 -115 -77 -115c-54 0 -51 43 -77 115c-17 48 -65 104 -65 156c0 78 64 142 142 142zM175 49c2 4 3 9 5 15c1 4 3 8 4 12l-80 -10v-1c3 -10 5 -17 7 -24zM100 78l88 11c1 4 2 9 4 14h-100
c3 -9 6 -17 8 -25zM142 12c15 0 21 2 29 23l-55 -7c7 -15 13 -16 26 -16zM202 129c6 14 14 27 22 41c17 30 34 62 34 88c0 64 -52 116 -116 116s-116 -52 -116 -116c0 -26 17 -58 34 -88c8 -14 16 -27 22 -41h120zM142 335c4 0 6 -2 6 -6s-2 -7 -6 -7c-36 0 -65 -28 -65 -64
c0 -4 -2 -7 -6 -7s-7 3 -7 7c0 43 35 77 78 77z" />
    <glyph glyph-name="bullhorn" unicode="&#xf114;" horiz-adv-x="356" 
d="M278 370c51 0 78 -77 78 -155s-27 -156 -78 -156c-23 0 -40 15 -53 39h-1c-17 34 -42 57 -70 60c-1 0 -3 -1 -4 -1v0v0l-3 -3l-1 -1c-1 -1 -1 -3 -1 -5v0v-78c0 -6 11 -12 11 -23v-11c0 -12 -10 -22 -22 -22h-45c-12 0 -22 10 -22 22v100c0 12 -11 23 -23 23
c-25 0 -44 24 -44 55s19 56 44 56h103c31 0 58 24 77 61l1 -1c13 24 30 40 53 40zM223 214c0 -12 0 -22 1 -33h32c12 0 22 15 22 33s-10 34 -22 34h-32c-1 -11 -1 -22 -1 -34zM22 214c0 -18 10 -33 22 -33h79c-7 8 -12 19 -12 33s5 26 12 34h-79c-12 0 -22 -16 -22 -34z
M134 36v0v10c0 1 -2 1 -2 2c-4 4 -10 11 -10 22v78c0 4 1 7 2 11h-33v0h-8c4 -7 6 -15 6 -23v-100h45zM147 181c21 0 41 -9 58 -23c-3 18 -5 37 -5 56s2 38 5 56c-17 -14 -37 -22 -58 -22h-2c-12 0 -23 -16 -23 -34s11 -33 23 -33v0h2zM278 81c31 0 56 60 56 134
s-25 133 -56 133c-22 0 -41 -32 -50 -78h28c25 0 44 -25 44 -56s-19 -55 -44 -55h-28c9 -46 28 -78 50 -78z" />
    <glyph glyph-name="business-hours" unicode="&#xf115;" horiz-adv-x="491" 
d="M246 353v-160h-155s0 140 155 160zM245 221c16 0 30 -14 30 -30s-14 -30 -30 -30c-2 0 -4 1 -6 1l-77 -75c-7 -7 -16 -10 -23 -3s-6 16 1 23l75 80v4c0 16 14 30 30 30zM246 438c136 0 245 -109 245 -245s-109 -245 -245 -245s-246 109 -246 245s110 245 246 245zM259 3
c94 7 170 82 177 176h-30v26h30c-6 95 -82 171 -177 178v0v-26h-26v26c-96 -6 -172 -82 -178 -178h30v-26h-30c7 -95 83 -170 178 -176v27h26v-27z" />
    <glyph glyph-name="calendar" unicode="&#xf1bc;" horiz-adv-x="412" 
d="M347 330c0 -10 -8 -18 -18 -18s-18 8 -18 18v46c0 10 8 18 18 18s18 -8 18 -18v-46zM102 376v-46c0 -10 -8 -18 -18 -18s-18 8 -18 18v46c0 10 8 18 18 18s18 -8 18 -18zM369 349h43v-359h-412v359h44v-18c0 -22 18 -41 40 -41s40 19 40 41v18h165v-19
c0 -22 18 -40 40 -40s40 18 40 40v19zM372 30v223h-332v-223h332zM83 153v61h61v-61h-61zM175 153v61h60v-61h-60zM266 153v61h61v-61h-61zM83 65v61h61v-61h-61zM175 65v61h60v-61h-60zM266 65v61h61v-61h-61z" />
    <glyph glyph-name="calender_new" unicode="&#xf2bd;" horiz-adv-x="418" 
d="M256 350h-90v38h90v-38zM346 350v38h27c25 0 45 -20 45 -45v-328c0 -25 -20 -45 -45 -45h-328c-25 0 -45 20 -45 45v328c0 25 20 45 45 45h32v-38h-32c-4 0 -6 -3 -6 -7v-91h340v91c0 4 -2 7 -6 7h-27zM256 213h-98v-81h98v81zM294 213v-81h85v81h-85zM256 9v85h-98v-85
h98zM294 9h79c4 0 6 2 6 6v79h-85v-85zM119 213h-80v-81h80v81zM119 9v85h-80v-79c0 -4 2 -6 6 -6h74zM102 407c0 11 9 19 20 19s19 -8 19 -19v-64c0 -11 -8 -19 -19 -19s-20 8 -20 19v64zM282 407c0 11 8 19 19 19s19 -8 19 -19v-64c0 -11 -8 -19 -19 -19s-19 8 -19 19v64z
" />
    <glyph glyph-name="call_phone" unicode="&#xf2bb;" horiz-adv-x="444" 
d="M44 414h355c25 0 45 -20 45 -45v-354v0c0 -25 -20 -45 -45 -45h-355v0c-25 0 -44 20 -44 45v354v0c0 25 19 45 44 45zM125 266c-8 -11 -10 -28 -5 -40c2 -6 5 -14 12 -26c11 -20 26 -40 46 -60s40 -35 60 -46c12 -7 20 -10 26 -12c12 -5 30 -3 41 5l20 15
c14 10 13 28 0 38l-29 21c-8 6 -19 6 -26 0l-20 -16h-2c-1 0 -2 0 -3 1c-2 1 -4 3 -7 5c-8 5 -15 11 -22 18c-1 1 -4 3 -5 4s-2 3 -3 4c-7 7 -13 14 -18 22c-2 3 -4 6 -5 8l-2 2v3l16 19c6 7 7 19 1 27l-22 29c-10 13 -28 13 -38 -1z" />
    <glyph glyph-name="calling" unicode="&#xf116;" horiz-adv-x="458" 
d="M310 98l60 -60c10 -10 10 -27 -1 -38l-13 -13l-4 -3c-7 -5 -15 -10 -23 -13s-16 -5 -24 -6h-6c-22 0 -101 7 -196 102c-80 80 -110 138 -102 202c1 8 3 16 6 24c3 9 8 16 13 23l2 2l14 15c5 5 13 8 20 8s13 -2 18 -7l60 -60c10 -10 10 -27 -1 -38l-32 -32l5 -8
c11 -19 25 -46 53 -74s54 -42 73 -53l8 -4l32 32c5 5 13 8 20 8s13 -2 18 -7zM362 8c7 7 7 17 1 23l-60 59c-3 3 -7 4 -11 4c-5 0 -9 -2 -12 -5l-38 -37l-4 2c-3 2 -7 4 -11 6c-20 11 -47 26 -76 55s-44 56 -55 76c-2 4 -4 7 -6 11l-2 4v1l38 37c7 7 6 17 0 23l-59 59
c-3 3 -7 5 -11 5c-5 0 -9 -2 -12 -5l-11 -11c-5 -5 -11 -13 -16 -26c-3 -7 -4 -14 -5 -21c-6 -51 8 -104 98 -194c92 -92 168 -99 189 -99h5c7 1 14 3 21 6c13 5 21 11 26 16zM193 218l3 9l1 2l2 -1c17 -4 32 -13 44 -25c13 -13 22 -28 26 -46v-3h-3h-3s-4 1 -5 1h-1h-3v2
c-4 14 -11 26 -21 36c-11 11 -24 18 -39 22h-2zM198 275c0 4 0 7 -1 11l-1 3h3c33 -5 62 -21 85 -44c26 -26 41 -59 45 -96l1 -2h-3h-3h-4l-5 1v1c-4 33 -18 63 -41 86c-20 20 -45 34 -74 39h-2v1zM330 290c37 -37 60 -86 64 -139v-2l-6 -1h-6h-2l-1 2c-4 49 -24 95 -59 130
s-82 57 -132 60h-2v2c-1 4 -1 7 -2 10v3h2c54 -3 106 -27 144 -65zM458 157v-2h-3c-3 0 -6 -1 -9 -1h-2v2c-5 64 -34 125 -79 170c-48 48 -112 76 -181 79h-3l1 5v7v2h2c72 -3 140 -32 191 -83c48 -48 78 -111 83 -179z" />
    <glyph glyph-name="camera" unicode="&#xf232;" horiz-adv-x="447" 
d="M447 248l-1 -178c0 -38 -33 -50 -50 -52l-1 -1h-343c-17 0 -29 5 -39 16c-13 14 -13 33 -13 38v173c0 39 33 55 55 56h37c7 61 43 67 47 67h2h109c37 0 54 -33 59 -67h86c38 0 51 -33 52 -51v-1zM429 70h-1v178c0 2 -2 34 -33 34h-94c-5 0 -9 3 -9 8c-1 14 -8 59 -42 59
h-109v0c-1 0 -28 -3 -31 -58c0 -5 -4 -9 -9 -9h-46c-1 0 -37 -2 -37 -38v-174c0 -3 0 -15 8 -24c6 -7 14 -10 26 -10h343c1 0 34 3 34 34zM196 263c55 0 99 -44 99 -100s-44 -101 -99 -101s-100 45 -100 101s45 100 100 100zM196 80c45 0 81 38 81 83s-36 82 -81 82
s-82 -37 -82 -82s37 -83 82 -83zM344 247c15 0 28 -13 28 -28s-13 -27 -28 -27s-27 12 -27 27s12 28 27 28zM344 210c5 0 10 4 10 9s-5 10 -10 10s-9 -5 -9 -10s4 -9 9 -9zM196 228c5 0 9 -4 9 -9s-4 -9 -9 -9h-2c-12 0 -24 -4 -32 -13c-9 -9 -13 -21 -13 -34
c0 -5 -4 -9 -9 -9v0c-5 0 -9 3 -9 8c-1 18 6 35 18 48c12 12 30 18 47 18z" />
    <glyph glyph-name="canned-response" unicode="&#xf117;" horiz-adv-x="478" 
d="M433 430c25 0 45 -20 45 -45v-279c0 -25 -20 -45 -45 -45h-182l-129 -113v113h-77c-25 0 -45 20 -45 45v279c0 25 20 45 45 45h388zM376 271c3 3 2 5 -2 5l-95 1l-35 91c-1 2 -2 3 -3 3s-2 -1 -3 -3l-36 -91l-100 1c-4 0 -5 -2 -2 -5l81 -61l-37 -88c-1 -3 -1 -4 1 -4h3
l92 53l97 -54c1 0 2 -1 3 -1c2 0 2 1 1 4l-42 89z" />
    <glyph glyph-name="caret-down" unicode="&#xf118;" horiz-adv-x="293" 
d="M293 247c0 -5 -2 -9 -6 -13l-128 -128c-4 -4 -8 -5 -13 -5s-9 1 -13 5l-128 128c-4 4 -5 8 -5 13s1 9 5 13s8 5 13 5h256c5 0 9 -1 13 -5s6 -8 6 -13z" />
    <glyph glyph-name="caret-left" unicode="&#xf119;" horiz-adv-x="165" 
d="M165 320v-256c0 -5 -2 -9 -6 -13s-8 -5 -13 -5s-9 1 -13 5l-128 128c-4 4 -5 8 -5 13s1 9 5 13l128 128c4 4 8 5 13 5s9 -1 13 -5s6 -8 6 -13v0z" />
    <glyph glyph-name="caret-right" unicode="&#xf11a;" horiz-adv-x="165" 
d="M165 192c0 -5 -2 -9 -6 -13l-128 -128c-4 -4 -8 -5 -13 -5s-9 1 -13 5s-5 8 -5 13v256c0 5 1 9 5 13s8 5 13 5s9 -1 13 -5l128 -128c4 -4 6 -8 6 -13v0z" />
    <glyph glyph-name="caret-up" unicode="&#xf11b;" horiz-adv-x="293" 
d="M293 101c0 -5 -2 -9 -6 -13s-8 -6 -13 -6h-256c-5 0 -9 2 -13 6s-5 8 -5 13s1 8 5 12l128 128c4 4 8 6 13 6s9 -2 13 -6l128 -128c4 -4 6 -7 6 -12z" />
    <glyph glyph-name="categories" unicode="&#xf1db;" horiz-adv-x="487" 
d="M462 309c14 0 25 -11 25 -25v-295c0 -14 -11 -26 -25 -26h-362c-14 0 -25 12 -25 26v50h-50c-14 0 -25 11 -25 25v331c0 14 11 25 25 25h61c3 0 13 0 30 -35h271c14 0 25 -12 25 -26v-50h50zM17 395v-79h378v43c0 4 -4 8 -8 8h-276c-3 0 -7 2 -8 5c-6 14 -14 28 -18 31
h-60c-4 0 -8 -4 -8 -8zM17 64c0 -4 4 -8 8 -8h362c4 0 8 4 8 8v234h-378v-234zM470 -11v0v234h-58v-159c0 -14 -11 -25 -25 -25h-295v-50c0 -4 4 -8 8 -8h362c4 0 8 4 8 8zM470 240v0v44c0 4 -4 8 -8 8h-50v-52h58z" />
    <glyph glyph-name="categories-orphan" unicode="&#xf1dc;" horiz-adv-x="487" 
d="M236 189h-43l-6 143h55zM214 154c16 0 30 -14 30 -30s-14 -30 -30 -30s-29 14 -29 30s13 30 29 30zM462 309c14 0 25 -11 25 -25v-295c0 -14 -11 -25 -25 -25h-362c-14 0 -25 11 -25 25v50h-50c-14 0 -25 11 -25 25v330c0 14 11 26 25 26h61c4 0 13 -1 30 -36h271
c14 0 24 -11 24 -25v-50h51zM25 56v0h362c4 0 7 4 7 8v234h-113v18h113v43c0 4 -4 8 -8 8h-275c-3 0 -7 2 -8 5c-6 14 -14 27 -18 30h-60c-4 0 -8 -3 -8 -7v-80h128v-17h-128v-234c0 -4 4 -8 8 -8zM469 -11h1v234h-58v-159c0 -14 -11 -25 -25 -25h-295v-50c0 -4 4 -8 8 -8
h362c4 0 7 4 7 8zM469 240v44c0 4 -3 8 -7 8h-51v-52h58z" />
    <glyph glyph-name="category" unicode="&#xf223;" horiz-adv-x="445" 
d="M173 415c14 0 26 -12 26 -26v-147c0 -14 -12 -26 -26 -26h-147c-14 0 -26 12 -26 26v147c0 14 12 26 26 26h147zM171 244v143h-143v-143h143zM419 415c14 0 26 -12 26 -26v-147c0 -14 -12 -26 -26 -26h-147c-14 0 -26 12 -26 26v147c0 14 12 26 26 26h147zM417 244v143
h-143v-143h143zM173 169c14 0 26 -12 26 -26v-147c0 -14 -12 -26 -26 -26h-147c-14 0 -26 12 -26 26v147c0 14 12 26 26 26h147zM171 -2v143h-143v-143h143zM419 169c14 0 26 -12 26 -26v-147c0 -14 -12 -26 -26 -26h-147c-14 0 -26 12 -26 26v147c0 14 12 26 26 26h147z
M417 -2v143h-143v-143h143z" />
    <glyph glyph-name="caution" unicode="&#xf2d1;" 
d="M344 397l154 -269c18 -31 18 -70 0 -101s-51 -50 -87 -50h-310c-36 0 -69 19 -87 50s-18 70 0 101l154 269c18 31 52 51 88 51s70 -20 88 -51zM411 21c20 0 39 11 49 28v2c10 18 9 39 -2 56l-155 268c-10 17 -28 27 -48 27s-38 -10 -48 -27l-155 -269
c-10 -17 -10 -40 0 -57s29 -28 49 -28h310zM234 192v116c0 8 4 15 11 19s15 4 22 0s11 -11 11 -19v-116c0 -12 -10 -22 -22 -22s-22 10 -22 22zM222 102c0 19 15 34 34 34c9 0 18 -3 24 -9s10 -16 10 -25c0 -19 -15 -33 -34 -33s-34 14 -34 33zM0 -32v512h512v-512h-512z
" />
    <glyph glyph-name="chat" unicode="&#xf1bd;" horiz-adv-x="426" 
d="M351 374c42 0 75 -33 75 -74v-146c0 -41 -33 -74 -75 -74h-276c-5 0 -9 1 -14 2l-61 -72v144v146c0 41 33 74 75 74h276zM128 194c14 0 25 10 25 24c0 13 -11 25 -25 25s-25 -11 -25 -25s11 -24 25 -24zM213 194c14 0 25 11 25 25c0 13 -11 24 -25 24s-25 -11 -25 -25
s11 -24 25 -24zM298 194c14 0 26 10 26 24c0 13 -12 25 -26 25s-25 -11 -25 -25s11 -24 25 -24z" />
    <glyph glyph-name="chat-bubble" unicode="&#xf11c;" horiz-adv-x="504" 
d="M252 416c139 0 252 -91 252 -205s-113 -206 -252 -206c-27 0 -53 4 -77 10v-1l-163 -42l40 113c-33 35 -52 79 -52 126c0 114 113 205 252 205zM143 179c17 0 30 13 30 30s-13 30 -30 30s-30 -13 -30 -30s13 -30 30 -30zM252 179c17 0 30 13 30 30s-13 30 -30 30
s-30 -13 -30 -30s13 -30 30 -30zM361 179c17 0 30 13 30 30s-13 30 -30 30s-30 -13 -30 -30s13 -30 30 -30z" />
    <glyph glyph-name="chat-disable" unicode="&#xf11d;" horiz-adv-x="472" 
d="M424 363c30 -34 48 -76 48 -123c0 -27 -6 -53 -17 -77c-26 -56 -80 -98 -146 -115l-133 -105v107c-16 5 -31 11 -45 18l-108 -109l-23 23l439 442l23 -23zM370 407l-295 -297c-34 35 -55 80 -55 130c0 110 101 200 226 200c46 0 88 -12 124 -33z" />
    <glyph glyph-name="chat-enable" unicode="&#xf11e;" horiz-adv-x="452" 
d="M434 163v0v0c-26 -56 -80 -98 -146 -115l-133 -105v107c-90 26 -155 101 -155 190c0 110 101 200 226 200s226 -90 226 -200c0 -27 -7 -53 -18 -77z" />
    <glyph glyph-name="chat-source" unicode="&#xf1f3;" horiz-adv-x="492" 
d="M492 226v1v0v-4v-1v0c-3 -101 -109 -181 -242 -181h-8c-12 0 -23 2 -33 3l-1 -1c-2 -1 -5 -2 -9 -4c-7 -3 -16 -8 -27 -15c-7 -4 -14 -9 -21 -13c-15 -9 -30 -19 -43 -26l-6 -3c-10 -6 -18 -9 -29 -10v0v0h-6l-1 1c-10 2 -16 14 -15 21c0 9 3 15 7 22l2 4
c5 8 10 17 16 26c10 15 18 26 22 34c-61 35 -98 91 -98 149v3c3 101 110 181 243 181h3h4c134 -3 240 -85 242 -187zM112 33c-2 -2 -3 -5 -5 -7c1 0 2 1 3 2l24 15c14 8 28 16 40 23l6 4c10 5 17 9 28 10h4c10 -1 21 -3 31 -3h6c113 0 206 65 207 145v2
c1 81 -92 150 -207 152h-6c-113 0 -206 -65 -207 -145v-2c0 -48 34 -94 90 -123c9 -4 12 -14 11 -20c0 -9 -3 -16 -7 -23l-2 -3c-5 -8 -10 -18 -16 -27z" />
    <glyph glyph-name="chat-ticket" unicode="&#xf2b6;" horiz-adv-x="452" 
d="M3 242c16 90 92 162 186 177c153 24 284 -101 260 -250c-14 -90 -88 -164 -181 -180c-44 -8 -88 -3 -128 13c-7 3 -13 3 -18 0l-63 -29c-21 -9 -44 9 -38 31l17 69c1 4 0 9 -3 14c-30 45 -42 100 -32 155zM54 6l54 25c14 7 28 7 43 1c35 -14 73 -18 111 -11
c79 14 144 77 156 153c20 127 -92 235 -224 214c-80 -13 -146 -75 -159 -152c-8 -47 1 -92 27 -131c8 -12 12 -27 8 -41z" />
    <glyph glyph-name="checkbox" unicode="&#xf11f;" horiz-adv-x="499" 
d="M441 224v-70v-138c0 -33 -22 -56 -55 -56h-332c-31 0 -54 23 -54 54v253v61c0 32 22 56 54 56h297c1 0 1 -1 3 -1c-1 -2 -3 -3 -4 -4c-19 -21 -28 -30 -47 -51c-2 -3 -4 -4 -8 -4h-220c-14 0 -16 -2 -16 -15v-277c0 -10 3 -13 13 -13h296c12 0 14 2 14 14v103
c0 2 1 5 2 7c22 30 33 48 55 78c0 0 1 1 2 3zM241 194c12 13 25 26 37 39c54 57 107 115 161 172c4 5 9 10 13 14c7 7 14 8 22 3c7 -4 14 -10 20 -16c7 -6 7 -12 2 -20c-4 -7 -8 -13 -12 -19c-75 -101 -151 -201 -226 -302c-9 -13 -22 -13 -31 0l-102 147l-9 15
c-4 7 -2 14 3 19s11 10 17 14c7 5 14 5 21 0c10 -7 20 -15 29 -22c17 -13 35 -27 52 -41c1 -1 1 -2 3 -3z" />
    <glyph glyph-name="checkbox-tick" unicode="&#xf2a8;" horiz-adv-x="358" 
d="M57 206l76 -71l167 175c13 13 35 14 48 1s14 -34 1 -47l-190 -198c-13 -13 -35 -15 -48 -2l-100 94c-13 13 -15 34 -2 47s35 14 48 1z" />
    <glyph glyph-name="checkmark" unicode="&#xf120;" horiz-adv-x="426" 
d="M403 341c6 0 11 -2 16 -7s7 -10 7 -16s-2 -11 -7 -14l-256 -256c-5 -5 -9 -6 -14 -6c-6 0 -12 1 -15 6l-128 128c-5 5 -6 9 -6 14c0 6 1 11 6 16s10 7 16 7s12 -2 15 -7l113 -113l239 241c3 5 8 7 14 7z" />
    <glyph glyph-name="checkmark-round" unicode="&#xf121;" horiz-adv-x="398" 
d="M199 389c110 0 199 -89 199 -199s-89 -199 -199 -199s-199 89 -199 199s89 199 199 199zM317 250c5 4 5 10 5 12c0 5 -1 8 -5 12c-3 4 -7 5 -12 5c-2 0 -8 0 -12 -5l-129 -130l-59 59c-4 5 -10 5 -12 5c-5 0 -8 -2 -12 -5s-5 -7 -5 -12c0 -4 2 -9 5 -12l71 -71
c4 -5 10 -5 12 -5c4 0 8 2 11 5z" />
    <glyph glyph-name="checkmark-round-o" unicode="&#xf122;" horiz-adv-x="398" 
d="M199 389c110 0 199 -89 199 -199s-89 -199 -199 -199s-199 89 -199 199s89 199 199 199zM199 16c96 0 174 78 174 174s-78 174 -174 174s-174 -78 -174 -174s78 -174 174 -174zM317 274c4 -4 5 -7 5 -12c0 -2 0 -8 -5 -12l-142 -142c-3 -3 -7 -5 -11 -5c-2 0 -8 0 -12 5
l-71 71c-3 3 -5 8 -5 12c0 5 2 8 5 12s7 5 12 5c2 0 8 0 12 -5l59 -59l129 130c4 5 10 5 12 5c5 0 8 -1 12 -5z" />
    <glyph glyph-name="checkmark-thick" unicode="&#xf123;" horiz-adv-x="489" 
d="M476 367c17 -17 17 -44 0 -61l-100 -114l-57 -66l-96 -109c-9 -9 -20 -13 -31 -13c-12 0 -23 5 -32 14l-148 141c-17 17 -15 45 2 62s44 15 61 -2l115 -109l227 259c17 15 43 14 59 -2z" />
    <glyph glyph-name="child-icon" unicode="&#xf263;" horiz-adv-x="484" 
d="M228 320v85v15h28v-15v-85v-14h-28v14zM470 306h-456h-14v28h14h456h14v-28h-14zM75 220h-64h-11v57h11h64h10v-57h-10zM473 220h-64h-11v57h11h64h11v-57h-11zM142 107v170h199v-170h-199zM171 363h142v113h-142v-113zM199 391v57h85v-57h-85z" />
    <glyph glyph-name="chrome" unicode="&#xf124;" 
d="M129 225l-73 127c47 59 119 96 200 96c94 0 175 -51 220 -126h-209c-4 0 -7 1 -11 1c-61 0 -112 -42 -127 -98v0zM348 286h146c11 -29 18 -61 18 -94c0 -140 -113 -254 -253 -256l105 181c15 21 23 47 23 75c0 37 -15 70 -39 94v0zM163 192c0 51 42 93 93 93
s93 -42 93 -93s-42 -93 -93 -93s-93 42 -93 93zM291 66l-73 -127c-123 18 -218 125 -218 253c0 46 12 89 33 126l104 -182c21 -45 67 -75 119 -75c12 0 24 2 35 5v0z" />
    <glyph glyph-name="clear-qna" unicode="&#xf282;" horiz-adv-x="460" 
d="M82 215h355c13 0 23 -11 23 -24s-10 -24 -23 -24h-355l139 -139c9 -9 9 -24 0 -33v0c-9 -9 -24 -9 -33 0v0l-182 182c-8 8 -8 20 0 28v0l182 182v0c9 9 24 9 33 0v0v0c9 -9 9 -24 0 -33v0z" />
    <glyph glyph-name="clone" unicode="&#xf22a;" horiz-adv-x="351" 
d="M281 287l70 -72v-217h-222v85h-129v300h152l70 -72v-24h59zM281 253v-38h37zM152 349v-38h37zM23 359v-252h176v180h-70v72h-106zM328 22v0v169h-70v72h-36v-180h-70v-61h176z" />
    <glyph glyph-name="close-qna" unicode="&#xf283;" horiz-adv-x="414" 
d="M244 192l162 -162c10 -10 10 -27 0 -37v0v0c-10 -10 -26 -10 -36 0l-163 163l-163 -163v0c-10 -10 -26 -10 -36 0s-10 27 0 37l162 162l-162 163v0c-10 10 -10 27 0 37s26 10 36 0l163 -163l163 163v0c10 10 26 10 36 0s10 -27 0 -37z" />
    <glyph glyph-name="close-ticket" unicode="&#xf28f;" horiz-adv-x="495" 
d="M382 400c9 -6 12 -18 6 -27s-18 -11 -27 -5c-82 53 -192 42 -262 -28c-81 -81 -81 -215 0 -296s215 -81 296 0c44 44 66 106 60 168c-1 11 7 20 18 21s20 -7 21 -18c7 -73 -19 -145 -72 -198c-96 -96 -254 -96 -350 0s-96 254 0 350c83 83 213 96 310 33zM159 214l68 -72
l203 192c8 7 21 7 28 -1s7 -20 -1 -27l-218 -205c-8 -7 -20 -7 -27 1l-81 85c-7 8 -7 20 1 27s20 8 27 0z" />
    <glyph glyph-name="code" unicode="&#xf23f;" horiz-adv-x="507" 
d="M35 135l-35 35l159 159l35 -35zM0 170l35 35l159 -159l-35 -35zM507 170l-35 -35l-159 159l35 35zM472 205l35 -35l-159 -159l-35 35zM231 7l-23 6l73 322l24 -5z" />
    <glyph glyph-name="code-snippet" unicode="&#xf240;" horiz-adv-x="465" 
d="M127 -14c-32 0 -56 8 -72 25c-17 18 -18 38 -18 43v74c0 15 -5 25 -17 31c-6 3 -13 5 -20 6l1 50c13 0 22 3 28 9c8 8 8 20 8 20v64c0 21 5 51 28 70c28 24 66 17 70 16l-9 -49v0c-5 1 -20 1 -29 -6c-7 -6 -10 -16 -10 -31v-63c0 -5 -1 -34 -22 -56l-1 -1
c15 -15 23 -36 23 -60v-74c0 -3 3 -18 40 -18v-50zM87 54v-1v1zM341 -14v50c16 0 30 4 35 10c2 2 2 4 2 6v2v0v74c0 24 8 45 23 60l-1 1c-21 22 -22 51 -22 56v63c0 11 -2 25 -10 32c-9 7 -23 5 -23 5v0l-10 49c4 1 38 7 65 -15c19 -15 28 -39 28 -71v-64c0 -2 1 -13 8 -20
c6 -6 16 -9 29 -9v-50v0c-8 -1 -15 -3 -21 -6c-11 -6 -16 -16 -16 -31v-73c1 -11 -3 -29 -16 -43c-15 -17 -40 -26 -71 -26z" />
    <glyph glyph-name="comment-multi" unicode="&#xf125;" horiz-adv-x="507" 
d="M113 102c-29 4 -57 17 -77 38c-23 24 -36 56 -36 90v57c0 72 58 130 130 130h185c72 0 130 -58 130 -130v-57c0 -72 -58 -129 -130 -129h-76l-126 -119v120zM130 393c-58 0 -106 -48 -106 -106v-57c0 -27 11 -53 30 -73s44 -31 71 -32l12 -1v-87l93 88h85
c58 0 106 47 106 105v57c0 58 -48 106 -106 106h-181v0h-4v0zM105 289v23h235v-23h-235zM105 209v24h185v-24h-185zM490 177c11 -12 17 -29 17 -45v-28c0 -17 -6 -33 -17 -46c-10 -12 -23 -19 -38 -22v-67l-70 65h-36c-17 0 -33 6 -45 17c-10 9 -17 21 -21 33h24
c8 -16 24 -27 42 -27h45l38 -36v35l11 1c25 1 45 22 45 47v28c0 20 -12 36 -30 43c2 7 3 15 4 23c12 -4 23 -11 31 -21z" />
    <glyph glyph-name="comments" unicode="&#xf126;" 
d="M402 229c0 -26 -9 -52 -27 -74s-42 -40 -73 -53s-65 -20 -101 -20c-16 0 -33 2 -50 5c-24 -17 -51 -29 -80 -37c-7 -2 -14 -3 -24 -4h-1c-2 0 -4 0 -6 2s-3 4 -3 6v2v2v1l1 2l1 1l1 2l1 1l2 2c1 1 3 3 6 7s6 6 8 8s3 4 6 8s5 7 7 11s4 8 6 13c-24 14 -42 31 -56 51
s-20 41 -20 64c0 26 9 51 27 73s42 40 73 53s65 20 101 20s70 -7 101 -20s55 -31 73 -53s27 -47 27 -73v0zM512 155c0 -23 -6 -44 -20 -64s-32 -36 -56 -50c2 -5 4 -9 6 -13s4 -7 7 -11s4 -6 6 -8s5 -4 8 -8s5 -7 6 -8c0 0 1 0 2 -1l1 -1s1 -1 1 -2s1 -1 1 -1l1 -2v-1v-2v-2
c-1 -3 -2 -4 -4 -6s-4 -2 -6 -2c-10 1 -17 2 -24 4c-29 8 -56 20 -80 37c-17 -3 -34 -5 -50 -5c-52 0 -97 13 -135 38c11 -1 19 -1 25 -1c31 0 60 4 88 13s54 20 76 36c24 18 42 38 55 61s19 47 19 73c0 15 -3 29 -7 43c25 -14 45 -31 59 -51s21 -43 21 -66v0z" />
    <glyph glyph-name="comments1" unicode="&#xf1d5;" horiz-adv-x="386" 
d="M256 382c70 0 130 -66 130 -144s-60 -144 -130 -144h-36l-110 -90c-2 -1 -3 -2 -5 -2c-1 0 -2 1 -3 1c-3 1 -5 4 -5 7v86c-49 15 -97 70 -97 142c0 78 61 144 133 144h123zM256 126c62 0 98 43 98 112s-36 112 -98 112h-123c-62 0 -101 -44 -101 -112
c0 -67 46 -102 91 -112c4 -1 6 -4 6 -8v-59l83 65c2 1 3 2 5 2h39zM231 216c9 0 17 -7 17 -17s-8 -17 -17 -17h-103c-9 0 -17 7 -17 17s8 17 17 17h103zM278 287c9 0 18 -7 18 -17s-9 -17 -18 -17h-150c-9 0 -17 7 -17 17s8 17 17 17h150z" />
    <glyph glyph-name="company" unicode="&#xf127;" horiz-adv-x="467" 
d="M0 -61v506h253v-506h-253zM143 390v-63h71v63h-71zM143 303v-71h71v71h-71zM143 208v-71h71v71h-71zM48 390v-63h71v63h-71zM48 303v-71h71v71h-71zM48 208v-71h71v71h-71zM285 192v40h182v-40h-182zM285 -61v229h182v-229h-48v142h-87v-142h-47z" />
    <glyph glyph-name="compose-email" unicode="&#xf1c8;" horiz-adv-x="461" 
d="M461 74c0 -8 -4 -16 -10 -22s-14 -9 -22 -9l-397 -1c-8 0 -17 4 -23 10s-9 14 -9 22v237c0 10 5 19 13 25v0c5 4 12 6 19 6l397 1c7 0 14 -2 19 -6c1 -1 1 -2 2 -3c6 -6 11 -14 11 -23v-237zM400 315h-338l169 -107zM429 70c2 0 3 1 3 1s1 1 1 3v230l-195 -124
c-4 -3 -10 -3 -14 0l-196 124v-230c0 -3 1 -4 4 -4h397z" />
    <glyph glyph-name="compress" unicode="&#xf241;" horiz-adv-x="410" 
d="M204 271v58c0 10 5 16 12 19c8 3 15 0 21 -6c11 -11 21 -21 31 -32c4 -4 6 -4 10 0c26 27 53 53 80 80c2 2 3 2 5 4c5 4 9 4 13 0l30 -30c5 -5 5 -9 -1 -15l-83 -83c-5 -5 -5 -5 0 -10c10 -11 21 -21 31 -31c6 -6 11 -12 7 -21c-4 -8 -11 -12 -20 -12h-114
c-15 0 -22 7 -22 22v57zM205 114v-58c0 -8 -3 -15 -11 -18s-14 -1 -20 5l-33 33c-4 4 -6 4 -10 0c-27 -28 -54 -55 -82 -82c-7 -7 -11 -8 -18 -1l-25 25s-8 12 0 20c27 28 54 55 82 82c4 4 4 6 0 9l-33 33c-6 6 -9 12 -5 20s11 11 19 11h117c12 0 19 -7 19 -19v-60z" />
    <glyph glyph-name="connect-chat" unicode="&#xf236;" horiz-adv-x="425" 
d="M134 -50v117c-37 13 -68 34 -92 63c-27 33 -42 72 -42 113c0 51 22 100 63 136c40 36 93 55 149 55s110 -19 150 -55c41 -36 63 -85 63 -136c0 -26 -6 -49 -17 -73v0c-12 -26 -31 -50 -55 -69c-23 -18 -50 -32 -79 -40zM212 398c-97 0 -176 -70 -176 -155
c0 -67 49 -125 121 -146l13 -4v-68l88 69l4 1c51 13 94 47 114 90v0c9 19 13 38 13 58c0 85 -80 155 -177 155z" />
    <glyph glyph-name="contacts" unicode="&#xf26c;" horiz-adv-x="383" 
d="M374 100c5 0 9 -4 9 -9v-110c0 -5 -4 -10 -9 -10h-19c-5 0 -9 5 -9 10s4 9 9 9h10v92h-10c-5 0 -9 4 -9 9s4 9 9 9h19zM246 64c5 0 9 -5 9 -10s-4 -9 -9 -9h-165c-5 0 -9 4 -9 9s4 10 9 10h165zM374 248c5 0 9 -5 9 -10v-110c0 -5 -4 -9 -9 -9h-19c-5 0 -9 4 -9 9
s4 9 9 9h10v92h-10c-5 0 -9 4 -9 9s4 10 9 10h19zM374 413c5 0 9 -4 9 -9v-110c0 -5 -4 -10 -9 -10h-46v-303c0 -5 -4 -9 -9 -9h-310c-5 0 -9 4 -9 9v423c0 5 4 9 9 9h365zM365 303v91h-347v-404h292v304c0 5 4 9 9 9h46zM87 156c-8 0 -15 7 -15 15v21c0 6 3 12 9 14
c40 15 50 22 53 25v2c-5 6 -8 13 -11 21c-4 4 -6 8 -7 13s0 11 3 15v16c0 26 17 42 45 42s45 -16 45 -42v-16c3 -4 4 -10 3 -15s-3 -9 -7 -13c-3 -8 -6 -15 -11 -21v-2c2 -2 12 -9 53 -25c6 -2 9 -8 9 -14v-21c0 -8 -7 -15 -15 -15h-154zM152 226c-2 -7 -8 -16 -62 -37v0
v-15h148v15c-54 21 -60 30 -62 37v2v9c0 2 0 4 2 6c4 5 8 11 10 19c1 2 2 4 4 5c1 1 2 2 2 3s0 2 -1 3c-1 2 -2 4 -2 6v19c0 16 -9 23 -27 23s-26 -7 -26 -23v-19c0 -2 -1 -4 -2 -6c-1 -1 -1 -2 -1 -3s0 -2 1 -3c2 -1 3 -3 4 -5c2 -8 6 -14 10 -19c2 -2 3 -4 3 -6v-9
c0 -1 -1 -1 -1 -2zM246 119c5 0 9 -4 9 -9s-4 -10 -9 -10h-165c-5 0 -9 5 -9 10s4 9 9 9h165z" />
    <glyph glyph-name="conversation" unicode="&#xf128;" horiz-adv-x="479" 
d="M360 424c18 0 33 -16 33 -35v-215c0 -19 -15 -35 -33 -35h-282l-78 -80v115v10v205c0 19 15 35 33 35h327zM450 286c16 0 29 -13 29 -30v-177v-9v-100l-68 69h-245c-16 0 -28 14 -28 31v61h9v-53c0 -16 12 -28 27 -28h241l55 -57v259c0 16 -15 25 -30 25h-38v9h48z" />
    <glyph glyph-name="create-ticket" unicode="&#xf297;" horiz-adv-x="444" 
d="M261 215v75c0 7 -6 13 -13 13h-37c-7 0 -12 -6 -12 -13v-75h-75c-7 0 -13 -5 -13 -12v0v-38c0 -7 6 -12 13 -12h75v-75c0 -7 5 -13 12 -13h37c7 0 13 6 13 13v75h75c7 0 13 5 13 12v38c0 7 -6 12 -13 12h-75zM44 414h355c25 0 45 -20 45 -45v-354v0
c0 -25 -20 -45 -45 -45h-355v0c-25 0 -44 20 -44 45v354v0c0 25 19 45 44 45z" />
    <glyph glyph-name="create-ticket-new" unicode="&#xf2ab;" horiz-adv-x="444" 
d="M253 215v75c0 7 -6 13 -13 13h-29c-7 0 -12 -6 -12 -13v-75h-75c-7 0 -13 -5 -13 -12v0v-29c0 -7 6 -13 13 -13v0h75v-75c0 -7 5 -12 12 -12h29c7 0 13 5 13 12v75h74c7 0 13 6 13 13v29v0c0 7 -6 12 -13 12v0h-74zM44 414h355c25 0 45 -20 45 -45v-354v0
c0 -25 -20 -45 -45 -45h-355v0c-25 0 -44 20 -44 45v354v0c0 25 19 45 44 45z" />
    <glyph glyph-name="cross" unicode="&#xf129;" horiz-adv-x="241" 
d="M232 111v0c12 -12 12 -31 0 -43s-32 -12 -44 0l-68 77l-68 -77c-12 -12 -31 -12 -43 0s-12 31 0 43l71 81l-71 81c-12 12 -12 31 0 43s31 12 43 0l68 -77l68 77c12 12 32 12 44 0s12 -31 0 -43l-71 -81z" />
    <glyph glyph-name="cross-filled" unicode="&#xf220;" horiz-adv-x="398" 
d="M199 391c110 0 199 -89 199 -199s-89 -199 -199 -199s-199 89 -199 199s89 199 199 199zM263 149l-43 43l44 44c6 6 6 15 0 21s-15 6 -21 0l-44 -44l-43 43c-6 6 -15 6 -21 0s-6 -15 0 -21l43 -43l-44 -44c-6 -6 -6 -15 0 -21s15 -6 21 0l44 44l43 -43c6 -6 15 -6 21 0
s6 15 0 21z" />
    <glyph glyph-name="cross-round" unicode="&#xf214;" horiz-adv-x="398" 
d="M199 391c110 0 199 -89 199 -199s-89 -199 -199 -199s-199 89 -199 199s89 199 199 199zM199 12c100 0 180 81 180 180s-81 180 -180 180s-180 -81 -180 -180s81 -180 180 -180zM264 257c6 -6 6 -15 0 -21l-44 -44l43 -43c6 -6 6 -15 0 -21s-15 -6 -21 0l-43 43l-44 -44
c-6 -6 -15 -6 -21 0s-6 15 0 21l44 44l-43 44c-6 6 -6 14 0 20s15 6 21 0l43 -43l44 44c6 6 15 6 21 0z" />
    <glyph glyph-name="crown" unicode="&#xf12a;" horiz-adv-x="490" 
d="M398 106zM121 -13v76h252v-76h-252zM385 246l79 68l-65 -144l-26 -76h-256l-26 76v0l-61 130l76 -54h46l25 112l55 -112h23l49 112l35 -112h46zM0 304c0 16 14 30 30 30s29 -14 29 -30s-13 -30 -29 -30s-30 14 -30 30zM147 367c0 16 14 30 30 30s29 -14 29 -30
s-13 -30 -29 -30s-30 14 -30 30zM278 367c0 16 14 30 30 30s30 -14 30 -30s-14 -30 -30 -30s-30 14 -30 30zM430 304c0 16 14 30 30 30s30 -14 30 -30s-14 -30 -30 -30s-30 14 -30 30z" />
    <glyph glyph-name="cube" unicode="&#xf1dd;" horiz-adv-x="463" 
d="M462 308c1 -1 1 -3 1 -5v-220c0 -4 -2 -7 -5 -9l-212 -102c-1 -1 -3 -1 -5 -1c-1 0 -3 0 -4 1l-231 102c-4 2 -6 5 -6 9v220v0v0v0c0 2 0 4 1 5l1 1c1 1 1 2 2 2h1l1 1l232 102c3 1 6 1 9 0l211 -102v-1h1c1 0 1 -1 2 -2zM232 -5v199l-213 94v-199zM241 211l77 37v0l2 1
l5 3v0l22 10v0l2 1l1 1v0l15 7l67 32l-190 92l-88 -39v0l-31 -14l-90 -39zM444 89v199l-193 -94v-198z" />
    <glyph glyph-name="cube-filled" unicode="&#xf218;" horiz-adv-x="407" 
d="M176 -24l-169 90c-4 2 -7 6 -7 11v208c0 10 10 16 19 12l169 -79c5 -2 8 -7 8 -12v-218c0 -10 -11 -17 -20 -12zM389 315l-174 -80c-7 -3 -14 -3 -21 0l-176 82c-7 3 -7 13 0 16l178 74c5 2 11 2 16 0l178 -76c7 -3 6 -13 -1 -16zM231 -24c-9 -5 -20 2 -20 12v218
c0 5 3 10 8 12l169 79c9 4 19 -2 19 -12v-208c0 -5 -3 -9 -7 -11z" />
    <glyph glyph-name="cubes" unicode="&#xf219;" horiz-adv-x="458" 
d="M216 150v0v-1v-121c0 -2 0 -3 -2 -4l-104 -52v0v0h-1v0v0h-1v0v0h-1v0v0h-1v0v0l-104 52c-1 1 -2 2 -2 4v121v0v1v0v0v0l1 1v0v0v0v1h1v0v0v0v0v1h1l103 51c1 1 3 1 4 0l104 -51v0v0v-1v0h1v0v0v0l1 -1v0v0v-1v0v0v0zM108 196l-94 -47l94 -47l94 47zM9 142v-112l95 -47
v111l-2 1zM207 30v112l-93 -47l-2 -1v-111zM458 149v0v-121c0 -2 0 -3 -2 -4l-104 -52v0v0h-1v0v0v0h-1v0h-1v0v0h-1v0v0l-104 52c-2 1 -2 2 -2 4v121v0v1v0v0v0v1h1v0v0v1v0h1v0v0v0v1v0l104 51c1 1 3 1 4 0l104 -51v0v-1v0v0h1v0v0v-1v0h1v0v-1v0v0v0v-1zM350 196l-94 -47
l94 -47l94 47zM251 142v-112l95 -47v111l-2 1zM449 30v112l-93 -47l-2 -1v-111zM124 231c-2 1 -3 3 -3 4v121v1v0v0v0l1 1v0v0v0v1v0v0h1v1v0v0v0h1l103 52c1 1 3 1 4 0l104 -52v0v0v0h1v-1v0v0v0h1v-1v0v0v0v-1v0v0v-1v-121c0 -2 0 -3 -2 -4l-104 -51v-1v0h-1v0v0v0h-1v0
h-1v0v0v0h-1v1zM130 349v-111l95 -48v112zM233 190l95 48v111l-95 -47v-112zM229 403l-94 -47l94 -47l94 47zM225 -15v17h8v-17h-8zM363 227v17h9v-17h-9zM86 227v17h9v-17h-9z" />
    <glyph glyph-name="customer-fields" unicode="&#xf12b;" horiz-adv-x="489" 
d="M91 201c-12 0 -19 30 -7 41c-1 11 -16 87 62 87s63 -76 62 -87c12 -11 5 -41 -7 -41c-5 -28 -26 -49 -26 -49v0c-7 -9 -17 -15 -29 -15s-22 6 -29 15v0s-21 21 -26 49zM292 47h-146h-146c0 41 82 78 108 84c11 -8 24 -13 38 -13s27 5 38 13c26 -5 108 -43 108 -84z
M399 47h-24v29h-29v24h29v29h24v-29h29v-24h-29v-29zM263 215v18h172v-18h-172zM263 157v18h172v-18h-172zM263 273v18h172v-18h-172zM485 348c3 -3 4 -7 4 -11v-120v-20v-24v-26v-167c0 -8 -7 -15 -15 -15h-328c-8 0 -15 7 -15 15v44h30v-28h298v151v26v24v20v106h-51
c-5 0 -9 4 -9 9v55h-238v-37h-30v52c0 8 7 16 15 16h262c4 0 8 -2 11 -5z" />
    <glyph glyph-name="customer-portal" unicode="&#xf12c;" horiz-adv-x="494" 
d="M482 -8h-469c-7 0 -13 5 -13 12v30c0 7 6 13 13 13h469c7 0 12 -6 12 -13v-30c0 -7 -5 -12 -12 -12zM471 82h-448c-1 0 -3 1 -3 2v294c0 1 2 2 3 2h448c1 0 2 -1 2 -2v-294c0 -1 -1 -2 -2 -2zM471 62c12 0 23 10 23 22v294c0 12 -11 23 -23 23h-448
c-12 0 -23 -11 -23 -23v-294c0 -12 11 -22 23 -22h448zM42 359h409v-256h-409v256zM250 297c-27 0 -48 -20 -48 -46s21 -47 48 -47s49 21 49 47s-22 46 -49 46zM323 153v0v16c0 6 -6 11 -12 11h-118c-6 0 -12 -5 -12 -11v-16h142z" />
    <glyph glyph-name="customer-satisfaction" unicode="&#xf1bf;" horiz-adv-x="424" 
d="M212 405c117 0 212 -95 212 -212s-95 -212 -212 -212s-212 95 -212 212s95 212 212 212zM212 27c92 0 165 74 165 166s-73 166 -165 166s-166 -74 -166 -166s74 -166 166 -166zM150 214c-17 0 -31 13 -31 30s14 31 31 31s30 -14 30 -31s-13 -30 -30 -30zM274 214
c-17 0 -31 13 -31 30s14 31 31 31s30 -14 30 -31s-13 -30 -30 -30zM308 157c10 -6 13 -19 7 -29c-20 -33 -60 -53 -103 -53s-83 20 -103 53c-6 10 -3 23 7 29s22 3 28 -7c12 -20 40 -34 68 -34s55 14 67 34c6 10 19 13 29 7z" />
    <glyph glyph-name="customer_report" unicode="&#xf21b;" horiz-adv-x="494" 
d="M382 -9h83v-20h-83v20zM494 52v0c0 -8 -6 -15 -14 -15l-16 -45h-83l-16 45c-8 0 -14 7 -14 15s6 14 14 14s15 -6 15 -14c0 -4 -2 -8 -4 -10l15 -16l7 32c-6 2 -10 8 -10 14c0 8 6 14 14 14s15 -6 15 -14c0 -5 -3 -9 -7 -12l12 -32l13 32c-4 3 -7 7 -7 12c0 8 6 14 14 14
s15 -6 15 -14c0 -6 -4 -12 -10 -14l7 -32l15 16c-2 2 -4 6 -4 10c0 8 7 14 15 14s14 -6 14 -14zM324 24v0c0 -15 3 -29 8 -42h-323c-5 0 -9 5 -9 10v32c0 2 1 5 3 7c42 40 92 68 146 81h2h4c2 0 3 0 4 -1c16 -8 38 -14 60 -14s45 6 61 14c1 1 2 1 4 1h5c2 0 4 0 5 -1
c18 -4 35 -11 52 -19c-14 -19 -22 -43 -22 -68zM116 253v0c0 7 4 13 10 16c-3 11 -5 22 -5 34c0 58 44 105 99 105s99 -47 99 -105c0 -12 -2 -24 -5 -34c6 -3 10 -9 10 -16c0 -10 -8 -18 -17 -18h-1c-4 -47 -40 -95 -86 -95s-84 48 -87 95v0c-9 0 -17 8 -17 18z" />
    <glyph glyph-name="customer_satisfaction" unicode="&#xf1ea;" horiz-adv-x="488" 
d="M446 24h-83v14h83v-14zM446 51h-83v15h83v-15zM446 78h-83v15h83v-15zM426 162h-84v-164h126v122h-42v42zM438 182l50 -50v-154h-166v204h116zM258 292c16 0 29 -13 29 -29s-13 -29 -29 -29s-29 13 -29 29s13 29 29 29zM103 154v0c-6 9 -3 20 6 26s21 3 27 -6
c12 -19 37 -32 64 -32s51 13 63 32c5 8 15 12 24 8v-41c-20 -24 -52 -38 -87 -38c-41 0 -78 20 -97 51zM287 85v0v0v-49c-26 -13 -57 -21 -88 -21c-110 0 -199 90 -199 200s90 199 200 199s199 -89 199 -199h-43c0 86 -71 156 -157 156s-156 -70 -156 -156s70 -157 156 -157
c32 0 63 10 88 27zM141 234c-16 0 -29 13 -29 29s13 29 29 29s29 -13 29 -29s-13 -29 -29 -29z" />
    <glyph glyph-name="customers-new" unicode="&#xf2b4;" horiz-adv-x="478" 
d="M361 188c-39 0 -72 32 -72 71s33 71 72 71s71 -32 71 -71s-32 -71 -71 -71zM361 227c18 0 32 14 32 32s-14 33 -32 33s-33 -15 -33 -33s15 -32 33 -32zM152 172c-53 0 -96 42 -96 95s43 96 96 96s96 -43 96 -96s-43 -95 -96 -95zM152 211c31 0 57 25 57 56s-26 57 -57 57
s-57 -26 -57 -57s26 -56 57 -56zM39 32c0 -11 -8 -19 -19 -19s-20 8 -20 19c0 64 52 117 117 117h65c65 0 117 -53 117 -117c0 -11 -8 -19 -19 -19s-20 8 -20 19c0 43 -35 78 -78 78h-65c-43 0 -78 -35 -78 -78zM296 127c-11 0 -20 8 -20 19s9 19 20 19h101
c45 0 81 -38 81 -84c0 -11 -9 -19 -20 -19s-19 8 -19 19c0 25 -19 46 -42 46h-101z" />
    <glyph glyph-name="date" unicode="&#xf12d;" horiz-adv-x="408" 
d="M87 45c-3 2 -4 6 -3 9l6 18c1 2 3 3 5 4s4 1 6 0c6 -4 20 -10 34 -10c11 0 19 3 24 9c4 4 7 10 7 17c0 26 -30 27 -36 27h-13c-4 0 -8 3 -8 7v18c0 4 4 7 8 7h13c12 0 30 6 30 22c0 12 -8 18 -22 18c-12 0 -24 -5 -30 -10c-2 -1 -4 -2 -6 -1s-4 3 -5 5l-6 17
c-1 3 -1 7 2 9c9 7 28 14 49 14c39 0 56 -24 56 -48c0 -16 -8 -30 -21 -40c17 -9 27 -26 27 -46c0 -29 -21 -59 -69 -59c-21 0 -39 7 -48 13zM232 175l-5 18c-1 3 1 6 4 8l37 21c1 1 2 0 3 0h20c4 0 7 -3 7 -7v-172c0 -4 -3 -8 -7 -8h-22c-4 0 -8 4 -8 8v138l-19 -11
c-2 -1 -4 -1 -6 0s-3 3 -4 5zM362 413c25 0 46 -21 46 -47v-378c0 -26 -21 -47 -46 -47h-316c-25 0 -46 21 -46 47v378c0 26 21 47 46 47h38v-35c0 -13 10 -24 23 -24s24 11 24 24v35h146v-35c0 -13 11 -24 24 -24s23 11 23 24v35h38zM378 -12v308h-348v-308
c0 -9 7 -16 16 -16h316c9 0 16 7 16 16zM107 369c-5 0 -9 4 -9 9v55c0 5 4 9 9 9s9 -4 9 -9v-55c0 -5 -4 -9 -9 -9zM301 369c-5 0 -9 4 -9 9v55c0 5 4 9 9 9s8 -4 8 -9v-55c0 -5 -3 -9 -8 -9z" />
    <glyph glyph-name="day_pass" unicode="&#xf12e;" horiz-adv-x="489" 
d="M489 165v-70c0 -14 -11 -25 -25 -25h-439c-14 0 -25 11 -25 25v69c21 0 38 17 38 38s-17 38 -38 38v69c0 14 11 25 25 25h439c14 0 25 -11 25 -25v-69c-21 0 -38 -16 -38 -37s17 -38 38 -38zM426 271c0 14 -11 25 -25 25h-313c-14 0 -25 -11 -25 -25v-138
c0 -14 11 -25 25 -25h313c14 0 25 11 25 25v138v0zM401 120h-313c-7 0 -13 6 -13 13v138c0 7 6 13 13 13h313c7 0 13 -6 13 -13v-138c0 -7 -6 -13 -13 -13zM156 214l-11 32l-11 -32l-33 -1l26 -22l-9 -33l27 19l27 -19l-9 33l26 22zM257 214l-12 32l-11 -32l-33 -1l26 -22
l-9 -33l27 19l28 -19l-9 33l25 22zM357 214l-11 32l-12 -32l-33 -1l26 -22l-9 -33l28 19l27 -19l-9 33l26 22z" />
    <glyph glyph-name="db-calendar" unicode="&#xf206;" horiz-adv-x="481" 
d="M255 118h-27c-4 43 -17 89 -17 98s1 16 7 22s14 10 23 10s16 -4 22 -10s9 -13 9 -22c0 -7 -11 -55 -17 -98zM241 81c7 0 14 -1 20 -7s7 -14 7 -21s-1 -14 -7 -20s-13 -8 -20 -8s-15 2 -21 8s-7 11 -7 20c0 7 1 15 7 21s14 7 21 7zM130 340c-11 0 -19 8 -19 19v55
c0 11 8 19 19 19s18 -8 18 -19v-55c0 -11 -7 -19 -18 -19zM426 396c31 0 55 -24 55 -56v-333c0 -31 -23 -56 -55 -56h-370c-31 0 -56 24 -56 56v333c0 31 24 56 56 56h36v-37c0 -20 18 -37 38 -37s36 17 36 37v37h149v-37c0 -20 17 -37 37 -37s37 17 37 37v37h37zM444 7v0
v278h-407v-278c0 -11 7 -19 18 -19h371c11 0 18 8 18 19zM352 340c-11 0 -19 8 -19 19v55c0 11 8 19 19 19s18 -8 18 -19v-55c0 -11 -7 -19 -18 -19z" />
    <glyph glyph-name="db-feedback" unicode="&#xf207;" horiz-adv-x="479" 
d="M0 410h303c89 0 89 -87 89 -87v-174h87l-131 -174l-130 174h85v173h-303v88z" />
    <glyph glyph-name="db-interactions" unicode="&#xf208;" horiz-adv-x="482" 
d="M482 332l-120 -91v60h-272c-17 0 -30 -13 -30 -30v-56h-60v56c0 50 40 91 90 91h272v60zM422 168h60v-56v0c-2 -48 -41 -88 -90 -88h-272v-60l-120 90l120 91v-61h272c17 0 30 14 30 31v53z" />
    <glyph glyph-name="db-message" unicode="&#xf209;" horiz-adv-x="484" 
d="M455 369c16 0 29 -13 29 -29v-296c0 -16 -13 -29 -29 -29h-425c-16 0 -30 13 -30 29v296c0 16 14 29 30 29h425zM242 166l183 168h-366zM163 190l-128 118v-232zM190 166l-131 -116h366l-130 116l-32 -29c-6 -5 -13 -9 -21 -9s-14 4 -20 9zM321 190l128 -114v232z" />
    <glyph glyph-name="db-sand-clock" unicode="&#xf20a;" horiz-adv-x="359" 
d="M128 184c5 3 6 12 1 15c-51 28 -91 96 -98 178c-1 5 -4 8 -9 8h-12c-5 0 -9 4 -9 9v30c0 5 4 9 9 9h340c5 0 9 -4 9 -9v-30c0 -5 -4 -9 -9 -9h-13c-5 0 -8 -3 -9 -8c-7 -82 -46 -150 -97 -177c-6 -3 -6 -12 0 -15c51 -28 90 -96 97 -178c1 -5 4 -8 9 -8h13c5 0 9 -4 9 -9
v-30c0 -5 -4 -8 -9 -8h-341c-5 0 -9 3 -9 8v30c0 5 4 8 9 8h13c5 0 7 3 8 8c7 82 47 150 98 178zM79 370c12 -41 34 -77 66 -104c10 -8 20 -16 27 -26c3 -5 11 -5 14 0c8 10 17 18 27 26c32 27 54 63 66 104c1 4 -1 9 -6 10s-11 2 -16 2h-60h-18h-17h-60c-5 0 -12 -1 -17 -2
s-7 -5 -6 -10zM146 132c-20 -18 -38 -39 -50 -63c-1 -2 2 -3 3 -2c18 13 37 24 57 36c17 10 35 18 53 25c3 1 3 5 1 7c-9 7 -17 14 -24 23c-3 5 -10 5 -13 0c-8 -10 -17 -18 -27 -26z" />
    <glyph glyph-name="db-unassigned" unicode="&#xf20b;" horiz-adv-x="253" 
d="M127 434v0c70 0 126 -58 125 -127c0 -57 -28 -89 -51 -114c-20 -22 -36 -37 -36 -73c0 -22 -16 -40 -38 -40s-40 17 -40 40c0 67 32 102 57 127c20 22 31 34 31 59c0 27 -22 49 -48 49c-27 0 -49 -22 -49 -49c0 -21 -17 -38 -39 -38s-39 17 -39 38c0 70 57 128 127 128z
M127 45c26 0 48 -22 48 -48s-23 -47 -48 -47c-26 0 -47 21 -47 47c0 27 21 48 47 48z" />
    <glyph glyph-name="deathstar-off" unicode="&#xf2c4;" 
d="M482 244c9 0 16 -7 16 -15s-6 -14 -15 -14h-462c-4 0 -7 3 -7 8c16 157 186 255 337 193c10 -4 7 -20 -5 -20h-6c-18 0 -33 -15 -33 -33s15 -32 33 -32h61c13 0 13 -20 0 -20h-24c-11 0 -21 -9 -21 -20s10 -20 21 -20h27c4 0 7 -4 7 -7c0 -11 9 -20 20 -20h51zM512 229
c0 16 -14 29 -30 29h-51c-4 0 -7 3 -7 6c0 11 -9 20 -20 20h-27c-9 0 -9 14 0 14h24c13 0 23 10 23 23s-10 23 -23 23h-61c-11 0 -20 9 -20 19s9 20 20 20h6c27 0 34 35 10 45c-159 65 -338 -38 -355 -204c-1 -13 9 -23 21 -23h461c16 0 29 12 29 28zM173 383
c31 0 56 -28 56 -63s-25 -62 -56 -62s-57 27 -57 62s26 63 57 63zM173 396c-39 0 -70 -35 -70 -76s31 -76 70 -76s70 35 70 76s-31 76 -70 76zM434 284c-9 0 -9 -15 0 -15h64c9 0 9 15 0 15h-64zM371 81c-9 0 -9 -15 0 -15h65c9 0 9 15 0 15h-65zM382 -29c-9 0 -9 -15 0 -15
h65c9 0 9 15 0 15h-65zM384 371c-9 0 -9 -15 0 -15h56c9 0 9 15 0 15h-56zM341 371c-9 0 -9 -15 0 -15h22c9 0 9 15 0 15h-22zM337 -29c-9 0 -9 -15 0 -15h22c9 0 9 15 0 15h-22zM400 40c14 0 14 -20 0 -20h-123c-15 0 -27 -11 -27 -26s12 -27 27 -27h19c9 0 10 -12 2 -13
c-140 -23 -270 74 -284 209c0 4 4 7 8 7h461c9 0 15 -7 15 -16c-1 -7 -7 -13 -15 -13h-13c-13 0 -24 -11 -24 -24c0 -6 -4 -11 -11 -11h-62c-19 0 -34 -14 -34 -33s15 -33 34 -33h27zM483 126c16 0 29 13 29 29s-13 29 -29 29h-462c-13 0 -22 -10 -21 -23
c15 -143 152 -246 300 -221c10 2 17 10 17 20c0 12 -9 22 -21 22h-19c-7 0 -13 6 -13 12s6 11 13 11h123c14 0 25 11 25 25s-11 24 -25 24h-27c-11 0 -20 9 -20 19s9 19 20 19h62c14 0 26 11 26 25c0 5 3 9 9 9h13z" />
    <glyph glyph-name="deathstar-on" unicode="&#xf2c5;" 
d="M173 389c35 0 63 -31 63 -69s-28 -69 -63 -69s-63 31 -63 69s28 69 63 69zM364 406c0 7 -5 13 -11 16c-30 12 -63 19 -97 19c-130 0 -236 -96 -249 -218v-1c0 -8 6 -14 14 -14v0h462c13 0 24 11 22 24c-1 11 -12 19 -23 19h-51c-8 0 -13 6 -13 13s-6 14 -14 14h-27
c-8 0 -14 6 -14 13s6 13 14 13h24c9 0 17 8 17 17s-8 17 -17 17h-61c-15 0 -26 11 -26 25s11 26 26 26h6c10 0 18 8 18 17zM482 244c9 0 16 -7 16 -15s-6 -14 -15 -14h-462c-4 0 -7 3 -7 8c16 157 186 255 337 193c10 -4 7 -20 -5 -20h-6c-18 0 -33 -15 -33 -33
s15 -32 33 -32h61c13 0 13 -20 0 -20h-24c-11 0 -21 -9 -21 -20s10 -20 21 -20h27c4 0 7 -4 7 -7c0 -11 9 -20 20 -20h51zM512 229c0 16 -14 29 -30 29h-51c-4 0 -7 3 -7 6c0 11 -9 20 -20 20h-27c-9 0 -9 14 0 14h24c13 0 23 10 23 23s-10 23 -23 23h-61
c-11 0 -20 9 -20 19s9 20 20 20h6c27 0 34 35 10 45c-159 65 -338 -38 -355 -204c-1 -13 9 -23 21 -23h461c16 0 29 12 29 28zM173 383c31 0 56 -28 56 -63s-25 -62 -56 -62s-57 27 -57 62s26 63 57 63zM173 396c-39 0 -70 -35 -70 -76s31 -76 70 -76s70 35 70 76
s-31 76 -70 76zM400 47h-27c-15 0 -27 12 -27 26s12 26 27 26h62c10 0 18 8 18 18c0 9 8 17 17 17h13c12 0 21 8 22 19c1 13 -9 24 -22 24h-461h-1c-8 0 -14 -6 -14 -14v-2c13 -122 119 -218 249 -218c14 0 29 2 43 4c6 1 11 6 11 13c0 8 -6 15 -14 15h-19
c-11 0 -20 9 -20 19c0 11 9 19 20 19h123c10 0 18 7 18 17s-8 17 -18 17zM434 284c-9 0 -9 -15 0 -15h64c9 0 9 15 0 15h-64zM371 81c-9 0 -9 -15 0 -15h65c9 0 9 15 0 15h-65zM382 -29c-9 0 -9 -15 0 -15h65c9 0 9 15 0 15h-65zM384 371c-9 0 -9 -15 0 -15h56
c9 0 9 15 0 15h-56zM341 371c-9 0 -9 -15 0 -15h22c9 0 9 15 0 15h-22zM337 -29c-9 0 -9 -15 0 -15h22c9 0 9 15 0 15h-22zM400 40c14 0 14 -20 0 -20h-123c-15 0 -27 -11 -27 -26s12 -27 27 -27h19c9 0 10 -12 2 -13c-140 -23 -270 74 -284 209c0 4 4 7 8 7h461
c9 0 15 -7 15 -16c-1 -7 -7 -13 -15 -13h-13c-13 0 -24 -11 -24 -24c0 -6 -4 -11 -11 -11h-62c-19 0 -34 -14 -34 -33s15 -33 34 -33h27zM483 126c16 0 29 13 29 29s-13 29 -29 29h-462c-12 0 -22 -10 -21 -23c15 -143 152 -246 300 -221c10 2 17 10 17 20
c0 12 -9 22 -21 22h-19c-7 0 -13 6 -13 12s6 11 13 11h123c14 0 25 11 25 25s-11 24 -25 24h-27c-11 0 -20 9 -20 19s9 19 20 19h62c14 0 26 11 26 25c0 5 3 9 9 9h13z" />
    <glyph glyph-name="decimal" unicode="&#xf1c9;" horiz-adv-x="470" 
d="M463 81c5 -4 7 -10 7 -17c0 -6 -2 -12 -6 -16s-10 -7 -18 -7h-133c-9 0 -17 3 -22 8s-7 12 -7 19c0 5 2 11 5 19s6 14 10 18c16 18 31 33 44 46s22 21 28 25c10 7 17 15 24 23s13 15 16 23s5 15 5 23s-2 15 -6 22s-9 12 -15 16s-13 5 -21 5c-16 0 -28 -7 -37 -22
c-1 -2 -3 -7 -6 -16s-6 -15 -10 -20s-9 -7 -16 -7c-6 0 -11 2 -15 6s-6 11 -6 18c0 9 2 18 6 28s10 18 17 26s17 14 28 19s25 7 40 7c19 0 35 -3 48 -9c8 -4 16 -10 22 -17s11 -15 15 -25s5 -20 5 -30c0 -16 -4 -30 -11 -43s-14 -24 -22 -31s-21 -19 -39 -35
s-31 -28 -38 -37c-3 -3 -6 -8 -9 -13h95c9 0 17 -2 22 -6zM0 78c0 21 16 38 36 38s36 -17 36 -38s-16 -38 -36 -38s-36 17 -36 38zM191 330c7 0 12 -2 16 -7s7 -13 7 -22v-222c0 -26 -9 -39 -27 -39c-8 0 -14 3 -19 8s-7 13 -7 23v177c-33 -25 -46 -35 -57 -35
c-5 0 -10 3 -14 7s-6 9 -6 15c0 7 2 12 6 15s12 7 22 12c16 10 18 11 27 19s18 17 25 27s13 17 15 19s6 3 12 3z" />
    <glyph glyph-name="default-format" unicode="&#xf242;" horiz-adv-x="456" 
d="M0 338v44c0 5 2 7 6 7c8 0 16 1 23 -4c5 -3 10 -4 16 -4c30 0 61 -1 91 0c16 0 33 1 49 1c36 -1 72 -1 108 -1c6 0 11 1 15 6c2 3 6 2 9 2c14 0 11 0 11 -11c1 -28 1 -58 1 -86c0 -3 -1 -7 -1 -10s1 -6 -2 -8c-5 -3 -10 -4 -16 -4c-2 0 -3 2 -4 4c-7 15 -12 31 -15 48
c-1 5 -2 11 -3 16s-4 8 -9 9c-3 0 -5 1 -8 1c-21 0 -41 0 -62 -1c-11 -1 -11 -1 -12 -11c-1 -14 -2 -29 -1 -43c1 -18 1 -35 1 -53c0 -59 -1 -119 -1 -178c0 -7 1 -13 2 -20c0 -4 4 -7 7 -8c12 -5 24 -8 36 -11c6 -2 11 -3 17 -5c3 -1 5 -3 5 -6c3 -15 0 -18 -15 -18
c-22 0 -45 2 -67 4c-23 2 -45 2 -68 0c-14 -1 -28 -3 -42 -3c-4 0 -5 2 -5 5c-1 12 1 16 12 21c10 4 21 6 31 9c3 1 5 2 8 3c8 2 11 6 12 14c2 20 2 41 2 61c0 37 1 75 0 112s-1 75 -1 112c0 14 -2 16 -16 16c-20 1 -38 1 -58 -4c-11 -3 -18 -9 -21 -20
c-3 -12 -6 -23 -10 -34c-5 -13 -8 -14 -19 -6c-4 3 -6 7 -6 12v42zM255 190v35h201v-35h-201zM255 120v35h201v-35h-201zM255 49v35h113v-35h-113z" />
    <glyph glyph-name="delete" unicode="&#xf215;" horiz-adv-x="507" 
d="M254 446c140 0 253 -114 253 -254s-113 -253 -253 -253s-254 113 -254 253s114 254 254 254zM398 155v75h-290v-75h290z" />
    <glyph glyph-name="delete_items" unicode="&#xf2b1;" horiz-adv-x="393" 
d="M360 319v-317c0 -18 -15 -32 -33 -32h-262c-18 0 -32 14 -32 32v317h-13c-11 0 -20 8 -20 19s9 20 20 20h78v32c0 18 15 32 33 32h131c18 0 32 -14 32 -32v-32h79c11 0 20 -9 20 -20s-9 -19 -20 -19h-13zM72 319v-310h249v310h-249zM249 277c11 0 19 -8 19 -19v-188
c0 -11 -8 -19 -19 -19s-20 8 -20 19v188c0 11 9 19 20 19zM150 277c11 0 20 -8 20 -19v-188c0 -11 -9 -19 -20 -19s-19 8 -19 19v188c0 11 8 19 19 19zM137 358h118v26h-118v-26z" />
    <glyph glyph-name="deleted" unicode="&#xf1b3;" horiz-adv-x="418" 
d="M321 226c56 -12 97 -62 97 -121c0 -69 -55 -125 -124 -125c-40 0 -75 19 -98 48c1 -2 3 -3 4 -5h-127c-11 0 -21 5 -29 15s-12 21 -12 35v239h-24c-2 0 -4 0 -6 2s-2 4 -2 6v16c0 2 0 4 2 6s4 2 6 2h78l17 42c2 6 8 12 14 16s13 6 20 6h80c7 0 14 -2 20 -6s11 -10 13 -16
l18 -42h77c2 0 4 0 6 -2s2 -4 2 -6v-16c0 -2 0 -5 -2 -6s-4 -2 -6 -2h-24v-86zM294 229v0h-3h3zM133 373l-12 -29h112l-12 29c-1 2 -2 3 -4 3h-80c-2 0 -3 -1 -4 -3zM193 177c9 12 20 23 32 31v48c0 2 0 4 2 6s4 2 6 2h16c2 0 4 0 6 -2c1 -2 2 -4 2 -6v-33h-1
c11 3 21 6 33 6v0v83h-224v-237c0 -4 1 -8 2 -11s2 -4 3 -6l3 -3h107c1 -3 2 -6 4 -9c-9 17 -14 37 -14 58v-1h-1c-2 0 -4 1 -6 3s-2 4 -2 6v144c0 2 0 4 2 6s4 2 6 2h16c2 0 4 0 6 -2s2 -4 2 -6v-79zM182 158c-1 -3 -3 -5 -4 -8c1 3 3 5 4 8zM294 8c53 0 96 44 96 97
s-43 96 -96 96s-97 -43 -97 -96s44 -97 97 -97zM121 264c2 0 4 0 6 -2s2 -4 2 -6v-144c0 -2 0 -4 -2 -6s-4 -3 -6 -3h-16c-2 0 -4 1 -6 3s-2 4 -2 6v144c0 2 0 4 2 6s4 2 6 2h16zM276 86l64 69l16 -16l-80 -84l-1 -1l-43 46l15 16z" />
    <glyph glyph-name="disconnected" unicode="&#xf12f;" horiz-adv-x="494" 
d="M263 414c129 -7 231 -95 231 -203c0 -101 -93 -197 -231 -203v55c26 9 44 34 44 63s-18 53 -44 62v40c26 9 44 33 44 62s-18 53 -44 62v62zM238 59v0v-51c-26 1 -53 5 -82 13l-141 -45l35 112c-31 31 -50 75 -50 123c0 110 106 199 238 203v-88c1 0 2 1 3 1
c20 0 37 -17 37 -37s-17 -37 -37 -37h-3v-91h3c20 0 37 -16 37 -36s-17 -37 -37 -37h-3v-30v0z" />
    <glyph glyph-name="dislike" unicode="&#xf130;" horiz-adv-x="416" 
d="M118 434h36c17 0 34 -2 51 -6s37 -10 60 -18c30 -10 38 -12 42 -12h81c8 0 14 -2 20 -8s8 -12 8 -20v-180c0 -8 -2 -14 -8 -20s-12 -8 -20 -8h-80l-2 -2c-5 -3 -14 -11 -40 -45c-11 -14 -21 -25 -30 -35c-6 -6 -10 -15 -12 -28c-2 -11 -4 -23 -8 -35
c-3 -11 -8 -20 -15 -27c-6 -6 -12 -8 -20 -8c-14 0 -28 2 -39 8c-11 5 -19 14 -25 26s-9 27 -9 48c0 16 4 34 12 51l6 11h-62c-18 0 -32 6 -45 19s-19 28 -19 45v1c0 15 4 28 12 40l2 3v4c-2 5 -3 11 -3 17c0 13 4 26 10 37l1 2v2c0 4 -1 7 -1 11c0 17 5 33 15 46l2 2v3
c0 24 6 42 21 56s34 20 59 20v0zM47 332c-4 -8 -5 -16 -5 -24c0 -6 1 -12 3 -18c-9 -10 -13 -22 -13 -35c0 -6 1 -12 3 -18c1 -3 2 -5 3 -7c-4 -3 -8 -8 -11 -14c-5 -10 -7 -18 -7 -26c0 -12 5 -21 14 -30s19 -14 30 -14h90c-2 -9 -6 -19 -12 -33c-10 -20 -14 -37 -14 -49
c0 -20 3 -35 10 -45c8 -11 22 -16 43 -16h3l2 2c6 6 10 15 13 28c2 11 5 23 8 35c3 11 8 20 15 27c4 4 11 13 22 26c1 1 3 4 7 9s7 8 9 11s5 7 9 12s8 9 11 12s6 6 10 9c3 3 7 6 10 7s4 2 6 2h17v195h-17h-7s-7 1 -9 2s-6 2 -10 3s-8 2 -10 3s-5 2 -9 4c-6 2 -8 2 -8 2v0
l-1 1c-40 14 -73 21 -98 21h-34c-51 0 -62 -30 -62 -55c0 -4 1 -8 1 -12c-5 -4 -9 -9 -12 -15zM370 326c7 0 13 3 18 8s7 11 7 18s-2 13 -7 18s-11 8 -18 8s-13 -3 -18 -8s-8 -11 -8 -18s3 -13 8 -18s11 -8 18 -8v0z" />
    <glyph glyph-name="dispatcher" unicode="&#xf131;" horiz-adv-x="492" 
d="M486 243c3 0 6 -3 6 -6v-135h-6v0h-191v0h-6v116v1v18c0 3 3 6 6 6h191zM281 70c1 -2 1 -4 1 -6s1 -3 1 -5v-1c0 -17 -14 -31 -32 -31s-32 14 -32 31v1v5s1 4 2 6c3 9 11 16 20 19c3 1 7 2 10 2s6 -1 9 -2c9 -3 17 -10 21 -19zM264 58v1c0 2 0 3 -1 5s-4 4 -6 6
c-2 1 -4 2 -6 2s-5 -1 -7 -2s-5 -3 -6 -6c-1 -2 -1 -3 -1 -5v-1c0 -7 7 -13 14 -13s13 6 13 13zM395 89c-6 -5 -11 -11 -13 -19c-1 -2 -1 -4 -1 -6v-6v0h-90v0v6s-1 4 -2 6c-2 8 -6 14 -12 19h-1h1c-3 2 -6 4 -10 6c-3 1 -5 2 -8 3s-5 1 -8 1s-6 0 -9 -1s-5 -2 -8 -3
c-4 -2 -6 -4 -9 -6c-6 -5 -11 -11 -13 -19c-1 -2 -1 -4 -1 -6s-1 -3 -1 -5v-1h-6c-3 0 -6 3 -6 6v31c0 2 0 4 1 5v45c0 35 23 53 24 54s3 2 4 2h49c2 0 4 -1 5 -2v-97v-4c0 -1 0 -1 1 -2v0v-1c1 -1 2 -1 3 -1h117c-2 -1 -5 -3 -7 -5zM270 153v0v35h-41
c-4 -4 -15 -15 -17 -35h58zM451 70c1 -2 1 -4 1 -6s1 -3 1 -5v-1c0 -17 -14 -31 -32 -31s-32 14 -32 31v1v5s1 4 2 6c4 9 11 16 20 19c3 1 7 2 10 2s7 -1 10 -2c9 -3 16 -10 20 -19zM434 58v1c0 2 0 3 -1 5s-3 4 -5 6c-2 1 -4 2 -7 2c-2 0 -5 -1 -7 -2s-5 -3 -6 -6
c-1 -2 -1 -3 -1 -5v-1c0 -7 7 -13 14 -13s13 6 13 13zM437 96v0h43v0v-2v-30c0 -3 -3 -6 -6 -6h-13v1v5s-1 4 -2 6c-2 8 -6 14 -12 19c-2 2 -5 4 -7 5c-1 0 -2 2 -3 2v0zM99 360l13 22h1v-1l6 -24l24 -4c1 0 1 0 0 -1l-22 -12l7 -24v-2l-1 1l-22 17l-26 -9v-1s-1 1 -1 2
l13 20l-18 19c-1 1 0 1 1 1zM213 408l9 15h1v0l3 -17l17 -2c1 0 1 -1 0 -1l-15 -8l5 -17v0h-1l-15 12l-17 -7v0l-1 1l9 14l-12 13s-1 0 0 0zM4 95c-6 6 -6 18 2 26l244 244c4 4 8 6 13 6s10 -1 13 -4l24 -24c7 -6 6 -18 -2 -26l-244 -243c-8 -8 -19 -9 -26 -2zM168 251
l16 -16l96 96l-16 16z" />
    <glyph glyph-name="dot" unicode="&#xf212;" horiz-adv-x="439" 
d="M220 412c121 0 219 -99 219 -220s-98 -220 -219 -220s-220 99 -220 220s99 220 220 220z" />
    <glyph glyph-name="dots" unicode="&#xf132;" horiz-adv-x="292" 
d="M56 248c31 0 57 -25 57 -56s-26 -56 -57 -56s-56 25 -56 56s25 56 56 56zM236 248c31 0 56 -25 56 -56s-25 -56 -56 -56s-57 25 -57 56s26 56 57 56z" />
    <glyph glyph-name="down-arrow" unicode="&#xf230;" horiz-adv-x="303" 
d="M296 136l-127 -161c-10 -10 -25 -10 -35 0l-127 161c-10 10 -10 24 0 34h104v225c0 13 10 22 23 22h43c13 0 23 -9 23 -22v-225h96c10 -10 10 -24 0 -34z" />
    <glyph glyph-name="download" unicode="&#xf202;" horiz-adv-x="339" 
d="M339 259l-170 -169l-169 169h127v169h85v-169h127zM0 -42v75h339v-75h-339z" />
    <glyph glyph-name="drag-vertical" unicode="&#xf2cc;" horiz-adv-x="341" 
d="M256 269c0 24 19 42 43 42s42 -18 42 -42s-18 -43 -42 -43s-43 19 -43 43zM128 269c0 24 19 42 43 42s42 -18 42 -42s-18 -43 -42 -43s-43 19 -43 43zM0 269c0 24 19 42 43 42s42 -18 42 -42s-18 -43 -42 -43s-43 19 -43 43zM256 115c0 24 19 43 43 43s42 -19 42 -43
s-18 -42 -42 -42s-43 18 -43 42zM128 115c0 24 19 43 43 43s42 -19 42 -43s-18 -42 -42 -42s-43 18 -43 42zM0 115c0 24 19 43 43 43s42 -19 42 -43s-18 -42 -42 -42s-43 18 -43 42z" />
    <glyph glyph-name="dropbox" unicode="&#xf133;" horiz-adv-x="443" 
d="M120 394c5 3 12 3 16 -1l85 -71l-134 -83l-84 67c-4 4 -4 9 1 12zM307 69c4 -4 12 -4 17 -1l31 21v-20c0 -6 -4 -12 -9 -15l-124 -75v0h-1v0l-124 75c-5 3 -9 9 -9 15v20l32 -21c5 -3 12 -3 16 1l85 71v0h1v0v0zM4 160c-5 3 -5 8 -1 12l84 67l134 -83l-85 -70
c-4 -4 -11 -4 -16 -1zM439 318c5 -3 4 -8 0 -12l-83 -67l-135 83l86 71c4 4 11 4 16 1zM439 172c4 -4 5 -9 0 -12l-116 -75c-5 -3 -12 -3 -16 1l-78 64c-4 4 -4 9 1 12l126 77z" />
    <glyph glyph-name="dropdown-circle" unicode="&#xf224;" horiz-adv-x="455" 
d="M227 419c126 0 228 -101 228 -227s-102 -227 -228 -227s-227 101 -227 227s101 227 227 227zM227 -10c112 0 202 90 202 202s-90 202 -202 202s-202 -90 -202 -202s90 -202 202 -202zM227 116l-113 114h227z" />
    <glyph glyph-name="dropdown_blank" unicode="&#xf134;" horiz-adv-x="498" 
d="M467 352c18 0 31 -14 31 -32v-256c0 -18 -13 -32 -31 -32h-435c-18 0 -32 14 -32 32v256c0 18 14 32 32 32h435zM434 250h-141l71 -122zM25 84c0 -15 12 -26 27 -26h180v268h-180c-15 0 -27 -11 -27 -26v-216z" />
    <glyph glyph-name="earth" unicode="&#xf135;" horiz-adv-x="492" 
d="M246 438c136 0 246 -110 246 -246s-110 -246 -246 -246s-246 110 -246 246s110 246 246 246zM455 192c0 92 -60 171 -143 199c-5 -6 -8 -13 -8 -17c6 -56 44 -14 51 -22c26 -29 -49 -39 -23 -92c13 -25 28 -33 49 -33c22 0 29 -37 31 -52s0 -54 -8 -71s0 -34 8 -40
c27 35 43 80 43 128zM217 400v0c-76 -11 -140 -63 -167 -133c15 -2 52 -2 57 -15s-16 -27 -16 -54c0 -30 39 -30 39 -53s8 -49 8 -57s33 -50 45 -50s2 48 3 60c0 8 5 32 7 38c10 39 49 35 58 59c28 75 -60 79 -72 83s-32 5 -40 2s-23 10 -23 21s31 34 40 49s18 12 35 28
c8 7 21 12 26 22zM180 -7c21 -7 43 -11 66 -11c43 0 82 13 115 35c-9 17 -43 19 -60 18c-21 -2 -44 -15 -57 -18c-15 -3 -26 -7 -39 -8c-11 0 -12 -9 -25 -16z" />
    <glyph glyph-name="ecommerce" unicode="&#xf1e2;" horiz-adv-x="508" 
d="M476 294c19 -3 34 -23 32 -42c-3 -33 -5 -67 -8 -100c-2 -20 -18 -37 -38 -38c-30 -2 -60 -4 -90 -5c-20 -1 -39 -2 -59 -3v0c-46 -2 -91 -4 -137 -6h-4c-4 -3 -11 -8 -16 -10s-9 -9 -9 -14c0 -3 1 -6 4 -8s8 -5 17 -5h280c5 0 10 -5 10 -10s-5 -9 -10 -9h-2h-10h-16
c14 -5 24 -19 24 -34c0 -20 -16 -35 -36 -35s-36 15 -36 35c0 15 10 29 24 34h-16h-66h-78h-17c15 -5 25 -18 25 -34c0 -20 -16 -35 -36 -35s-36 15 -36 35c0 16 10 29 25 34h-31c-13 0 -23 3 -30 9s-11 15 -11 23c0 13 8 27 21 33h1c-8 6 -14 15 -16 26
c-14 74 -28 149 -42 223c-2 11 -7 20 -18 24c-3 1 -5 1 -7 -1c-4 -2 -8 -5 -12 -5c-11 -1 -23 0 -34 0c-10 0 -18 7 -18 16s6 17 16 17c12 1 25 0 38 0c3 0 6 -1 8 -3c4 -4 8 -5 13 -7c16 -6 27 -17 31 -34v-2c1 -5 1 -13 4 -16s11 -2 16 -3c53 -8 105 -14 158 -22
c52 -7 104 -16 156 -23c12 -2 24 -3 36 -5zM434 11c0 14 -11 24 -25 24s-25 -10 -25 -24s11 -25 25 -25s25 11 25 25zM234 11c0 14 -11 24 -25 24s-25 -10 -25 -24s11 -25 25 -25s25 11 25 25zM340 296c-22 3 -43 6 -65 9c2 -15 4 -27 6 -41h62c-1 11 -2 21 -3 32zM237 311
c-15 2 -31 5 -47 7c3 -19 7 -36 10 -54h63c-2 14 -4 27 -6 41c0 1 -3 3 -4 3c-5 1 -11 2 -16 3zM112 329c4 -22 9 -43 13 -65h57c-3 18 -6 34 -9 51c-1 4 -2 6 -6 6c-7 1 -15 2 -22 3c-10 1 -22 3 -33 5zM138 191h57c-3 18 -7 36 -10 54h-57c3 -18 7 -36 10 -54zM202 119h7
c-3 19 -7 37 -10 55h-57v-4c2 -11 4 -22 7 -33c3 -12 13 -20 25 -20c9 0 19 2 28 2zM203 245c3 -18 7 -35 10 -53h60c-3 18 -4 35 -7 53h-63zM226 120c19 1 38 1 57 2c-2 17 -5 35 -7 52h-59zM283 246c3 -18 5 -36 8 -54h58c-2 18 -3 36 -5 54h-61zM301 123l54 3
c-1 16 -3 31 -4 47h-57c2 -17 5 -33 7 -50zM358 293c1 -11 2 -19 3 -29h62v20c-22 3 -43 6 -65 9zM362 246c2 -18 3 -36 5 -54h57v54h-62zM424 129v45h-55c1 -16 3 -32 4 -48zM441 282v-18h47c-3 7 -7 12 -15 13c-10 2 -21 3 -32 5zM481 149c1 8 2 17 3 25h-42v-44h16
c11 1 21 9 23 19zM485 192c1 18 3 36 5 54h-48v-54h43zM195 10c0 7 6 13 13 13s14 -6 14 -13s-7 -14 -14 -14s-13 7 -13 14zM396 10c0 7 6 13 13 13s14 -6 14 -13s-7 -14 -14 -14s-13 7 -13 14z" />
    <glyph glyph-name="ecommerce-new" unicode="&#xf2b2;" horiz-adv-x="418" 
d="M345 -21c-31 0 -56 25 -56 56s25 56 56 56s57 -25 57 -56s-26 -56 -57 -56zM153 -21c-31 0 -57 25 -57 56s26 56 57 56s56 -25 56 -56s-25 -56 -56 -56zM345 11c13 0 25 11 25 24s-12 24 -25 24s-24 -11 -24 -24s11 -24 24 -24zM153 11c13 0 24 11 24 24s-11 24 -24 24
s-24 -11 -24 -24s11 -24 24 -24zM371 188l-244 -20c-8 -1 -15 -7 -15 -15c0 -7 6 -13 13 -13h277c9 0 16 -7 16 -16s-7 -16 -16 -16h-277c-25 0 -45 20 -45 45s19 45 44 47v0l-56 182h-52c-9 0 -16 7 -16 16s7 16 16 16h64c7 0 14 -5 16 -12l6 -20h300c10 0 17 -10 15 -20
l-32 -160c0 -2 -1 -4 -2 -6v0v0v0v0v0v0v0v0v-1v0v0v0v0v0v0v0h-1v0v0v-1v0v0v0v0v0v0v0v0v0v0v0v0h-1v-1v0v0v0c-2 -3 -5 -5 -9 -5h-1v0v0v0v0v0v0v0v0v0v0v0zM156 205l200 15l26 129h-270s15 -48 44 -144z" />
    <glyph glyph-name="edit" unicode="&#xf136;" horiz-adv-x="391" 
d="M13 17c-7 0 -13 6 -13 13v278c0 7 6 14 13 14h196l79 79c5 5 11 7 17 7s13 -2 17 -7l62 -62c4 -5 7 -11 7 -17s-2 -13 -7 -17l-79 -79v-196c0 -7 -6 -13 -13 -13h-279v0zM27 43h252v156l-82 -79c-5 -5 -12 -8 -20 -11c-1 0 -2 -1 -3 -1c-9 -3 -23 -6 -31 -6h-57v58
c0 12 1 21 3 29c3 10 7 19 12 24l82 82h-156v-252zM112 129l65 7l-57 56zM134 209l58 -58l110 110l-58 58zM266 341l58 -58l39 39l-58 58z" />
    <glyph glyph-name="edit-article" unicode="&#xf2aa;" horiz-adv-x="435" 
d="M287 391l-27 -28l-16 16h-205v-374h312v197l39 39v-243c0 -18 -15 -32 -33 -32h-325c-18 0 -32 14 -32 32v388c0 18 14 32 32 32h228zM418 395c22 -22 22 -58 0 -80l-183 -184c-1 -1 -3 -2 -4 -2l-68 -6c-9 -1 -16 5 -17 14v4l6 67c0 1 1 3 2 4l184 183c22 22 58 22 80 0
zM187 164l28 3l176 175c7 7 6 19 -1 26s-18 7 -25 0l-175 -176z" />
    <glyph glyph-name="edit-strike-thru" unicode="&#xf137;" horiz-adv-x="414" 
d="M121 209l21 -26l-6 -53l46 4l20 -24h-2s-2 -2 -3 -2c-9 -3 -22 -5 -30 -5h-58v57c0 12 2 21 4 29c2 7 5 15 8 20zM329 227v0v-196c0 -1 -1 -3 -1 -4l37 -42l-23 -18l-342 410l23 19l61 -74h149l79 79c5 5 11 7 17 7s13 -2 17 -7l61 -62c4 -5 7 -11 7 -17s-2 -13 -7 -17z
M329 380l-39 -39l58 -58l39 39zM268 319l-99 -99l52 -63l105 104zM206 295h-100l45 -54zM237 137l65 -78v140zM50 44v0h208l22 -27h-243v0c-7 0 -13 6 -13 13v279c0 4 2 8 5 10l21 -25v-250z" />
    <glyph glyph-name="ellipsis" unicode="&#xf138;" horiz-adv-x="471" 
d="M56 248c31 0 57 -25 57 -56s-26 -56 -57 -56s-56 25 -56 56s25 56 56 56zM236 248c31 0 56 -25 56 -56s-25 -56 -56 -56s-57 25 -57 56s26 56 57 56zM415 248c31 0 56 -25 56 -56s-25 -56 -56 -56s-57 25 -57 56s26 56 57 56z" />
    <glyph glyph-name="email" unicode="&#xf139;" horiz-adv-x="497" 
d="M263 55c0 -5 0 -11 1 -16h-228c-20 0 -36 15 -36 35v223c6 -5 12 -10 19 -13l164 -82c12 -6 29 -9 45 -9s32 3 44 9l164 82c7 3 13 8 19 13v-88c-11 2 -22 4 -34 4c-86 0 -158 -72 -158 -158zM32 307c-18 9 -32 29 -32 45s16 28 36 28h383c20 0 36 -12 36 -28
s-14 -36 -32 -45l-164 -82c-9 -4 -20 -6 -32 -6c-11 0 -22 2 -31 6zM481 64h-10c-2 -6 -5 -11 -8 -17l10 -10c6 -6 6 -16 0 -22l-5 -6c-6 -6 -17 -6 -23 0l-10 10c-5 -3 -11 -6 -17 -8v-10c0 -9 -7 -16 -16 -16h-8c-9 0 -16 7 -16 16v10c-6 2 -12 5 -17 8l-10 -10
c-6 -6 -16 -6 -22 0l-6 6c-6 6 -6 16 0 22l10 10c-3 5 -6 11 -8 17h-10c-9 0 -16 7 -16 16v8c0 9 7 16 16 16h10c2 6 4 12 7 17l-9 10c-6 6 -6 16 0 22l6 6c6 6 16 6 22 0l9 -9c6 3 12 5 18 7v11c0 9 7 16 16 16h8c9 0 16 -7 16 -16v-11c6 -2 12 -4 18 -7l9 9c6 6 17 6 23 0
l5 -6c6 -6 6 -16 0 -22l-9 -10c3 -5 5 -11 7 -17h10c9 0 16 -7 16 -16v-8c0 -9 -7 -16 -16 -16zM398 128c-24 0 -44 -20 -44 -44s20 -44 44 -44s44 20 44 44s-20 44 -44 44zM398 65c-11 0 -20 8 -20 19s9 20 20 20s20 -9 20 -20s-9 -19 -20 -19z" />
    <glyph glyph-name="email-new" unicode="&#xf2a1;" horiz-adv-x="486" 
d="M32 363h422c18 0 32 -15 32 -33v-293c0 -18 -14 -33 -32 -33h-422c-18 0 -32 15 -32 33v293c0 18 14 33 32 33zM39 324v-281h408v281h-408zM108 265l135 -91l135 91c9 6 21 3 27 -6s4 -21 -5 -27l-146 -97c-7 -4 -15 -4 -22 0l-146 97c-9 6 -11 18 -5 27s18 12 27 6z" />
    <glyph glyph-name="email-notifications" unicode="&#xf13a;" horiz-adv-x="478" 
d="M256 74c0 -5 0 -11 1 -16h-222c-19 0 -35 16 -35 35v218c6 -5 12 -10 19 -13l160 -80c12 -6 27 -9 43 -9s31 3 43 9l160 80c7 3 13 8 19 13v-86c-11 2 -22 4 -33 4c-84 0 -155 -71 -155 -155zM31 320c-17 8 -31 29 -31 44s16 27 35 27h374c19 0 35 -12 35 -27
s-14 -36 -31 -44l-160 -80c-8 -4 -20 -6 -31 -6s-23 2 -31 6zM382 168c37 0 66 -29 66 -65s-29 -66 -66 -66s-66 30 -66 66s29 65 66 65zM406 67v0v18h-12v60h-18l-12 -24h12v-36h-12v-18h30h12zM382 199c53 0 96 -44 96 -97s-43 -96 -96 -96s-96 43 -96 96s43 97 96 97z
M382 24c43 0 78 36 78 79s-35 78 -78 78s-78 -35 -78 -78s35 -79 78 -79z" />
    <glyph glyph-name="email_commands_setting" unicode="&#xf13b;" horiz-adv-x="480" 
d="M263 55c0 -5 0 -11 1 -16h-228c-20 0 -36 15 -36 35v223c6 -5 12 -10 19 -13l164 -82c12 -6 29 -9 45 -9s32 3 44 9l164 82c7 3 13 8 19 13v-88c-11 2 -22 4 -34 4c-86 0 -158 -72 -158 -158zM32 307c-18 9 -32 29 -32 45s16 28 36 28h383c20 0 36 -12 36 -28
s-14 -36 -32 -45l-164 -82c-9 -4 -20 -6 -32 -6c-11 0 -22 2 -31 6zM431 23c-15 -7 -31 -10 -50 -10c-46 0 -84 29 -84 77c0 51 40 95 102 95c49 0 81 -30 81 -71c0 -37 -24 -59 -50 -59c-11 0 -21 6 -20 21h-2c-10 -15 -22 -21 -39 -21c-16 0 -30 11 -30 31
c0 31 27 59 66 59c12 0 23 -3 30 -6l-10 -44c-4 -19 0 -28 9 -28c14 0 30 16 30 45c0 36 -25 62 -68 62c-46 0 -83 -32 -83 -82c0 -41 30 -67 71 -67c16 0 32 2 43 8zM416 130c-3 1 -8 1 -14 1c-25 0 -45 -20 -45 -44c0 -11 7 -19 19 -19c16 0 31 19 34 34z" />
    <glyph glyph-name="encrypted_text" unicode="&#xf2ca;" horiz-adv-x="498" 
d="M181 58c4 -9 9 -18 14 -26h-163c-18 0 -32 14 -32 32v256c0 18 14 32 32 32h200c-3 -8 -5 -17 -6 -26h-174c-15 0 -26 -11 -26 -26v-216c0 -15 11 -26 26 -26h129zM438 253c37 -28 60 -72 60 -122c0 -84 -67 -151 -151 -151s-152 67 -152 151c0 50 24 94 61 122v60
c0 50 41 91 91 91s91 -41 91 -91v-60zM286 311v-41c19 8 39 13 61 13s42 -5 61 -13v41c0 34 -27 60 -61 60s-61 -26 -61 -60zM347 101c17 0 30 13 30 30s-13 31 -30 31s-31 -14 -31 -31s14 -30 31 -30z" />
    <glyph glyph-name="encryption-lock" unicode="&#xf2cb;" horiz-adv-x="361" 
d="M181 436c61 0 111 -50 111 -111v-191c0 -61 -50 -111 -111 -111s-111 50 -111 111v191c0 61 50 111 111 111zM181 398c-41 0 -74 -33 -74 -74v-190c0 -41 33 -74 74 -74s74 33 74 74v190c0 41 -33 74 -74 74zM181 315c100 0 180 -80 180 -180s-80 -181 -180 -181
s-181 81 -181 181s81 180 181 180zM181 165c-17 0 -30 -13 -30 -30s13 -30 30 -30s30 13 30 30s-13 30 -30 30z" />
    <glyph glyph-name="enter-icon" unicode="&#xf2ce;" horiz-adv-x="453" 
d="M453 99c0 -19 -15 -34 -34 -34h-327v51h301c5 0 9 4 9 9v272c0 14 12 25 26 25v0c14 0 25 -11 25 -25v-298zM184 209c1 1 3 2 5 2c5 0 8 -4 8 -9v-225c0 -2 0 -4 -1 -5c-2 -4 -8 -4 -12 -2l-180 112l-3 3c-2 4 -1 10 3 12z" />
    <glyph glyph-name="eraser" unicode="&#xf243;" horiz-adv-x="445" 
d="M0 335v44c0 5 2 7 6 7c8 0 16 1 23 -4c5 -3 10 -4 16 -4c30 0 61 -1 91 0c16 0 33 1 49 0c36 -1 72 0 108 0c6 0 11 1 15 6c2 3 6 2 9 2c14 0 11 0 11 -11c1 -29 1 -57 1 -86c0 -3 -1 -7 -1 -10s1 -6 -2 -8c-5 -3 -10 -5 -16 -5c-2 0 -3 3 -4 5c-7 15 -12 31 -15 48
c-1 5 -2 11 -3 16s-4 8 -9 9c-3 0 -5 1 -8 1c-21 0 -41 0 -62 -1c-11 -1 -11 -1 -12 -11s-1 -20 -1 -30v-13c1 -18 0 -36 0 -54v-178v-1c0 -6 1 -12 2 -18c0 -4 3 -7 6 -8c12 -5 24 -8 36 -11l18 -6c3 -1 3 -2 4 -5c3 -15 1 -18 -14 -18c-22 0 -45 2 -67 4
c-23 2 -45 1 -68 -1c-14 -1 -28 -2 -42 -2c-4 0 -5 2 -5 5c-1 12 1 16 12 21c10 4 21 6 31 9c3 1 5 2 8 3c8 2 11 6 12 14c2 20 2 41 2 61c0 37 0 75 -1 112s0 75 0 112c0 14 -2 16 -16 16c-20 1 -39 1 -58 -4c-11 -3 -18 -9 -21 -20c-3 -12 -6 -23 -10 -34
c-5 -13 -8 -14 -19 -6c-4 3 -6 7 -6 12v42zM387 134l52 -53c4 -4 6 -8 6 -14s-2 -10 -6 -14l-2 -3c-4 -4 -8 -5 -14 -5s-10 1 -14 5l-53 53l-52 -53c-4 -4 -8 -5 -14 -5s-10 1 -14 5l-3 3c-4 4 -6 8 -6 14s2 10 6 14l52 53l-52 52c-4 4 -6 8 -6 14s2 10 6 14l3 3
c4 4 8 5 14 5s10 -1 14 -5l52 -53l53 53c4 4 8 5 14 5s10 -1 14 -5l2 -3c4 -4 6 -8 6 -14s-2 -10 -6 -14z" />
    <glyph glyph-name="eraser-o" unicode="&#xf244;" horiz-adv-x="396" 
d="M376 319c36 -5 13 -31 13 -31l-187 -207c-12 -14 -25 -13 -25 -13h-153c-38 0 -19 37 -19 37l193 214h178zM178 94l89 92l-158 -3l-83 -89h152z" />
    <glyph glyph-name="exchange" unicode="&#xf245;" horiz-adv-x="434" 
d="M414 148c11 0 20 -9 20 -20v-28c0 -11 -9 -20 -20 -20h-320v-40c0 -1 0 -3 -1 -4c-6 -6 -15 -6 -21 0l-68 68c-6 6 -6 14 0 20l68 68c6 6 15 6 21 1c1 -1 1 -3 1 -4v-41h320zM20 236c-11 0 -20 9 -20 20v28c0 11 9 20 20 20h320v41c0 1 1 2 2 3c6 5 14 6 20 0l68 -68
c6 -6 6 -14 0 -20l-68 -68c-6 -6 -14 -6 -20 0c-1 1 -2 2 -2 3v41h-320z" />
    <glyph glyph-name="expand" unicode="&#xf246;" horiz-adv-x="383" 
d="M0 71v54c0 8 3 14 10 17s14 1 19 -4l31 -31c3 -3 4 -3 7 0c25 25 51 50 76 75c8 8 11 8 19 0l22 -22s7 -11 0 -18c-25 -25 -50 -49 -75 -74c-5 -5 -5 -5 0 -10l29 -29c5 -5 9 -12 6 -19s-8 -10 -16 -11h-7h-98c-3 0 -7 0 -10 1c-7 2 -13 8 -13 16v55zM383 311v-55
c0 -8 -2 -13 -9 -16s-14 -1 -19 4l-31 31c-3 3 -5 3 -8 0c-25 -25 -50 -51 -75 -76c-8 -8 -11 -7 -19 1s-15 14 -23 22c-6 6 -6 11 0 17l76 76c3 3 4 5 0 8l-29 29c-6 6 -9 12 -6 20s11 11 19 11h106c12 0 18 -7 18 -19v-53z" />
    <glyph glyph-name="external-link" unicode="&#xf247;" horiz-adv-x="415" 
d="M163 15h-95c-35 0 -62 23 -68 57v8v195c0 32 23 59 54 65c4 1 9 1 13 1h159c10 0 12 -3 12 -12c0 -4 0 -7 -1 -11c-1 -5 -4 -8 -8 -8h-5h-155c-16 0 -28 -6 -35 -20c-2 -4 -3 -8 -3 -12v-35v-161c0 -18 10 -32 27 -36c3 -1 7 -1 10 -1h190c21 0 38 16 38 38v69
c0 9 2 11 11 11h9c7 0 10 -3 10 -10v-25v-46c0 -37 -29 -67 -66 -67h-97zM415 296v-57c0 -8 -3 -13 -10 -16s-13 0 -18 5c-12 12 -23 22 -34 34c-3 3 -6 4 -9 1c-48 -48 -95 -96 -143 -144c-7 -7 -10 -7 -17 0l-20 20c-8 8 -8 11 0 18c48 48 94 95 142 143c5 5 5 4 1 9
l-35 35c-8 8 -7 20 2 25c3 2 6 2 9 2h116c10 0 16 -7 16 -17v-58z" />
    <glyph glyph-name="eye" unicode="&#xf13c;" horiz-adv-x="427" 
d="M423 183c5 -7 5 -17 0 -24c-2 -3 -44 -63 -102 -104c-30 -21 -69 -34 -108 -34s-77 12 -107 33c-58 41 -100 101 -102 104c-5 7 -5 18 0 25c2 3 44 63 102 104c30 21 68 33 107 33s78 -12 108 -33c58 -41 100 -101 102 -104zM213 96c41 0 75 34 75 75s-34 74 -75 74
s-74 -33 -74 -74s33 -75 74 -75zM256 171c0 -24 -19 -43 -43 -43s-42 19 -42 43s18 42 42 42s43 -18 43 -42z" />
    <glyph glyph-name="eye-disabled" unicode="&#xf225;" horiz-adv-x="425" 
d="M213 152c-5 0 -10 0 -15 2l49 65c5 -7 8 -16 8 -25c0 -24 -19 -42 -42 -42zM302 381l24 -19l-264 -348l-25 19l47 62c-47 39 -78 85 -80 87c-5 7 -5 17 0 24c2 2 44 63 102 104c30 21 68 33 107 33c19 0 37 -3 54 -8zM138 194c0 -8 2 -16 4 -23l33 43c2 4 5 8 8 11l33 44
h-3c-41 0 -75 -34 -75 -75zM422 206c5 -7 5 -17 0 -24c-2 -3 -44 -63 -102 -104c-30 -21 -68 -33 -107 -33c-29 0 -58 7 -83 19l48 64c10 -5 23 -8 35 -8c41 0 74 33 74 74c0 20 -8 38 -20 51l51 67c1 0 1 -2 2 -2c58 -41 100 -102 102 -104z" />
    <glyph glyph-name="facebook" unicode="&#xf13d;" horiz-adv-x="440" 
d="M385 412c30 0 55 -25 55 -55v-330c0 -30 -25 -55 -55 -55h-83v158h58v69h-58v35c0 9 3 16 14 16h44v78h-49c-50 0 -89 -42 -89 -95v-34h-53v-69h53v-158h-167c-30 0 -55 25 -55 55v330c0 30 25 55 55 55h330z" />
    <glyph glyph-name="facebook-lock" unicode="&#xf13e;" horiz-adv-x="412" 
d="M284 222c71 0 128 -58 128 -129s-57 -129 -128 -129s-128 58 -128 129s57 129 128 129zM284 -21c63 0 114 51 114 114s-51 114 -114 114s-114 -51 -114 -114s51 -114 114 -114zM331 105c6 0 10 -5 10 -11v-62c0 -6 -4 -10 -10 -10h-94c-6 0 -10 4 -10 10v62
c0 6 4 11 10 11h94zM289 57c4 2 7 6 7 11c0 7 -5 12 -11 12s-12 -5 -12 -12c0 -4 2 -8 5 -10v-14c0 -3 3 -5 6 -5s5 2 5 5v13zM261 133v-22h-20v21c0 26 19 47 44 47s45 -21 45 -47v-21h-19v22c0 14 -11 25 -25 25s-25 -11 -25 -25zM110 289v0h55l-7 -65h-48v-188h-66v188
h-44v65h44v38c0 53 14 85 72 85h49v-65h-31c-23 0 -24 -9 -24 -26v-32z" />
    <glyph glyph-name="facebook-new" unicode="&#xf29f;" horiz-adv-x="444" 
d="M444 -5c0 -14 -11 -25 -25 -25h-113v172h58l8 67h-66v43c0 19 5 32 33 32h36v60c-6 1 -28 3 -52 3c-51 0 -86 -32 -86 -89v-49h-58v-67h58v-172h-213c-14 0 -24 11 -24 25v394c0 14 10 25 24 25h395c14 0 25 -11 25 -25v-394z" />
    <glyph glyph-name="facebook-setting" unicode="&#xf13f;" horiz-adv-x="260" 
d="M260 264l-22 -75h-71v-254h-108s1 134 1 254h-60v75h60c0 41 1 76 1 95c0 88 87 88 87 88h105v-94h-61c-30 0 -25 -43 -25 -43v-46h93z" />
    <glyph glyph-name="facebook-source" unicode="&#xf1f4;" horiz-adv-x="491" 
d="M430 439v0c34 0 61 -27 61 -61v-369c0 -34 -27 -61 -61 -61h-93v176h65v77h-65v40c0 10 3 17 16 17h49v87h-55c-56 0 -99 -47 -99 -106v-38h-59v-77h59v-176h-187c-34 0 -61 27 -61 61v369c0 34 27 61 61 61h369z" />
    <glyph glyph-name="facebook-ticket-new" unicode="&#xf2b5;" horiz-adv-x="452" 
d="M452 5c0 -22 -17 -39 -39 -39h-107c-9 0 -16 7 -16 16v163c0 9 7 16 16 16h40l4 31h-44c-9 0 -16 7 -16 16v40c0 30 14 48 47 48h18v25c-9 1 -22 1 -33 1c-41 0 -65 -23 -65 -67v-47c0 -9 -8 -16 -17 -16h-38v-31h38c9 0 17 -7 17 -16v-163c0 -9 -8 -16 -17 -16h-201
c-22 0 -39 17 -39 39v374c0 22 17 39 39 39h374c22 0 39 -17 39 -39v-374zM420 5v374c0 4 -3 7 -7 7h-374c-4 0 -7 -3 -7 -7v-374c0 -4 3 -7 7 -7h185v130h-38c-9 0 -16 8 -16 17v63c0 9 7 16 16 16h38v31c0 62 39 100 98 100c20 0 41 -2 51 -3c8 -1 14 -8 14 -16v-57
c0 -9 -7 -16 -16 -16h-34c-14 0 -15 -2 -15 -15v-24h47c10 0 17 -8 16 -18l-8 -63c-1 -8 -8 -15 -16 -15h-39v-130h91c4 0 7 3 7 7z" />
    <glyph glyph-name="feature-request" unicode="&#xf294;" horiz-adv-x="478" 
d="M239 -47c-132 0 -239 107 -239 239s107 239 239 239s239 -107 239 -239s-107 -239 -239 -239zM306 102l9 43h-72c-13 0 -24 9 -26 21c-4 -2 -8 -3 -12 -3c-10 0 -19 6 -23 14c-4 -8 -13 -14 -23 -14c-7 0 -13 3 -18 7l8 -68c0 -28 23 -50 51 -50h56c28 0 50 22 50 50z
M217 176c1 4 2 9 5 12v1v40c0 10 -7 18 -17 18s-18 -8 -18 -18v-40c0 -10 8 -18 18 -18c5 0 9 2 12 5zM268 197v42c0 10 -7 17 -17 17s-18 -7 -18 -17v-44c3 1 7 2 10 2h25v0zM315 191v133c0 10 -8 17 -18 17s-18 -7 -18 -17v-127h19c6 0 13 -2 17 -6v0zM159 238
c-10 0 -18 -8 -18 -18v-31c0 -10 8 -18 18 -18s17 8 17 18v31c0 10 -7 18 -17 18zM298 190h-55c-10 0 -18 -8 -18 -18s8 -18 18 -18h72v19c0 9 -8 17 -17 17z" />
    <glyph glyph-name="feature-request-new" unicode="&#xf2ad;" horiz-adv-x="478" 
d="M245 127h17c9 0 18 6 21 15l7 21c26 17 43 48 43 80c0 52 -42 94 -94 94s-94 -42 -94 -94c0 -32 17 -63 43 -80l7 -21c3 -9 11 -15 20 -15h18v59l-42 52c-3 4 -3 9 1 12c2 1 3 2 5 2h84c5 0 8 -4 8 -9c0 -2 -1 -3 -2 -5l-42 -52v-59zM239 -47c-132 0 -239 107 -239 239
s107 239 239 239s239 -107 239 -239s-107 -239 -239 -239zM213 95h51c6 0 11 6 11 12s-5 11 -11 11h-51c-6 0 -11 -5 -11 -11s5 -12 11 -12zM229 64h19c6 0 12 6 12 12s-6 11 -12 11h-19c-6 0 -12 -5 -12 -11s6 -12 12 -12zM272 239h-66l33 -40z" />
    <glyph glyph-name="feedback" unicode="&#xf140;" horiz-adv-x="494" 
d="M54 86v189h332v-189h-332zM236 233v-21h107v21h-107zM236 191v-21h107v21h-107zM236 149v-21h107v21h-107zM97 233v-105h96v105h-96zM462 339c18 0 32 -14 32 -32v-284c0 -18 -24 -43 -42 -43h-366c-18 0 -32 14 -32 32h32v0h339c25 0 37 7 37 37v290zM440 64
c0 -18 -14 -31 -32 -31h-376c-18 0 -32 13 -32 31v296c0 18 14 31 32 31h376c18 0 32 -13 32 -31v-296zM156 360c-9 0 -16 -7 -16 -16s7 -16 16 -16s16 7 16 16s-7 16 -16 16zM102 360c-9 0 -16 -7 -16 -16s7 -16 16 -16s16 7 16 16s-7 16 -16 16zM32 344c0 -9 7 -16 16 -16
s16 7 16 16s-7 16 -16 16s-16 -7 -16 -16zM32 297v-233h376v233h-376z" />
    <glyph glyph-name="feedback-new" unicode="&#xf1de;" horiz-adv-x="472" 
d="M108 271c-6 0 -9 5 -9 10s4 10 9 10h256c5 0 10 -5 10 -10s-5 -10 -10 -10h-256zM108 193c-6 0 -9 5 -9 10s4 9 9 9h256c5 0 10 -4 10 -9s-5 -10 -10 -10h-256zM462 388c5 0 10 -4 10 -9v-294c0 -5 -5 -9 -10 -9h-79l-91 -94c-2 -2 -4 -3 -7 -3c-1 0 -3 1 -4 1
c-4 2 -6 5 -6 9v87h-265c-5 0 -10 4 -10 9v294c0 5 5 9 10 9h452zM452 95v0v274h-432v-274h265c5 0 10 -5 10 -10v-72l77 79c2 2 4 3 7 3h73z" />
    <glyph glyph-name="feedback-widget" unicode="&#xf2b3;" horiz-adv-x="452" 
d="M414 261v97c0 14 -12 26 -26 26h-323c-14 0 -26 -12 -26 -26v-97h375zM414 222h-375v-187c0 -14 12 -26 26 -26h323c14 0 26 12 26 26v187zM65 422h323c36 0 64 -28 64 -64v-323c0 -36 -28 -65 -64 -65h-323c-36 0 -65 29 -65 65v323c0 36 29 64 65 64zM100 345
c12 0 23 -11 23 -23s-11 -22 -23 -22v0c-12 0 -22 10 -22 22v0v0c0 12 10 23 22 23zM184 345c12 0 23 -11 23 -23s-11 -22 -23 -22s-22 10 -22 22v0c0 12 10 23 22 23zM268 345c12 0 23 -11 23 -23s-11 -22 -23 -22v0c-12 0 -22 10 -22 22v0v0c0 12 10 23 22 23zM100 183
h252c11 0 20 -8 20 -19s-9 -19 -20 -19h-252c-11 0 -19 8 -19 19s8 19 19 19zM100 86h252c11 0 20 -8 20 -19s-9 -19 -20 -19h-252c-11 0 -19 8 -19 19s8 19 19 19z" />
    <glyph glyph-name="ff-add-note" unicode="&#xf141;" horiz-adv-x="500" 
d="M366 239c9 0 16 -7 16 -16v-58c0 -9 -7 -16 -16 -16h-71v-71c0 -9 -7 -16 -16 -16h-58c-9 0 -16 7 -16 16v71h-71c-9 0 -16 7 -16 16v58c0 9 7 16 16 16h71v71c0 9 7 16 16 16h58c9 0 16 -7 16 -16v-71h71zM399 444l101 -98v-9v-369c0 -14 -11 -25 -25 -25h-450
c-14 0 -25 11 -25 25v451c0 14 11 25 25 25h354v0h20zM455 -11v323h-63c-14 0 -24 11 -24 25v62h-323v-410h410z" />
    <glyph glyph-name="ff-clock" unicode="&#xf142;" horiz-adv-x="500" 
d="M250 442c138 0 250 -112 250 -250s-112 -250 -250 -250s-250 112 -250 250s112 250 250 250zM250 1c105 0 191 86 191 191s-86 191 -191 191s-191 -86 -191 -191s86 -191 191 -191zM348 212c13 0 24 -10 24 -23s-11 -23 -24 -23h-100c-13 0 -22 10 -22 23v140
c0 13 9 23 22 23s24 -10 24 -23v-117h76z" />
    <glyph glyph-name="ff-dialpad" unicode="&#xf143;" horiz-adv-x="491" 
d="M132 334c0 -14 -11 -25 -25 -25h-82c-14 0 -25 11 -25 25v79c0 14 11 25 25 25h82c14 0 25 -11 25 -25v-79zM312 334c0 -14 -11 -25 -25 -25h-82c-14 0 -25 11 -25 25v79c0 14 11 25 25 25h82c14 0 25 -11 25 -25v-79zM491 334c0 -14 -11 -25 -25 -25h-81
c-14 0 -25 11 -25 25v79c0 14 11 25 25 25h81c14 0 25 -11 25 -25v-79zM132 153c0 -14 -11 -25 -25 -25h-82c-14 0 -25 11 -25 25v79c0 14 11 25 25 25h82c14 0 25 -11 25 -25v-79zM312 153c0 -14 -11 -25 -25 -25h-82c-14 0 -25 11 -25 25v79c0 14 11 25 25 25h82
c14 0 25 -11 25 -25v-79zM491 153c0 -14 -11 -25 -25 -25h-81c-14 0 -25 11 -25 25v79c0 14 11 25 25 25h81c14 0 25 -11 25 -25v-79zM132 -28c0 -14 -11 -25 -25 -25h-82c-14 0 -25 11 -25 25v79c0 14 11 25 25 25h82c14 0 25 -11 25 -25v-79zM312 -28
c0 -14 -11 -25 -25 -25h-82c-14 0 -25 11 -25 25v79c0 14 11 25 25 25h82c14 0 25 -11 25 -25v-79zM491 -28c0 -14 -11 -25 -25 -25h-81c-14 0 -25 11 -25 25v79c0 14 11 25 25 25h81c14 0 25 -11 25 -25v-79z" />
    <glyph glyph-name="ff-group" unicode="&#xf1b2;" horiz-adv-x="509" 
d="M394 105c24 -4 115 -42 115 -85h-104c0 34 -40 66 -81 89c3 6 3 18 3 18s-22 21 -27 50c-13 0 -21 30 -8 41c0 11 -16 89 65 89s65 -78 65 -89c13 -11 5 -41 -8 -41c-5 -29 -27 -50 -27 -50s-1 -21 7 -22zM228 122c29 -4 137 -51 137 -102h-183h-182c0 51 108 98 137 102
c9 1 9 26 9 26s-26 26 -32 60c-16 0 -25 37 -9 50c-1 14 -21 106 77 106s79 -92 78 -106c16 -13 6 -50 -10 -50c-6 -34 -32 -60 -32 -60s1 -25 10 -26z" />
    <glyph glyph-name="ff-group-thin" unicode="&#xf1d0;" horiz-adv-x="504" 
d="M355 103c9 -3 14 -12 14 -22v-45c0 -13 -10 -23 -22 -23h-324c-12 0 -23 10 -23 23v45c0 10 5 19 14 22c96 38 115 54 118 59v12c-11 13 -20 29 -25 47c-8 7 -14 18 -14 30c0 8 3 15 7 22v37c0 50 32 80 85 80c54 0 84 -29 84 -80v-37c4 -7 7 -14 7 -22
c0 -12 -6 -23 -14 -30c-5 -18 -13 -35 -24 -47v-12c3 -5 21 -21 117 -59zM349 36v0v45c0 1 -1 2 -2 2c-107 42 -125 61 -129 74c0 1 -1 2 -1 3v18c0 3 1 5 3 7c11 11 19 27 24 45c1 2 2 5 4 6c5 3 7 9 7 15c0 5 -2 10 -4 12c-1 2 -2 4 -2 6v41c0 40 -21 59 -64 59
c-42 0 -65 -20 -65 -59v-41c0 -2 -1 -4 -2 -6c-2 -2 -4 -7 -4 -12c0 -6 3 -12 8 -15c2 -1 2 -4 3 -6c5 -18 13 -34 24 -45c2 -2 3 -4 3 -7v-18v-3c-4 -13 -23 -32 -130 -74c-1 0 -1 -1 -1 -2v-45c0 -1 1 -2 2 -2h324c1 0 2 1 2 2zM491 86c8 -3 13 -11 13 -19v-34
c0 -11 -9 -20 -20 -20h-86c-6 0 -10 4 -10 10s4 11 10 11h86l-1 33c-87 34 -97 48 -100 58c0 1 -1 2 -1 3v14c0 3 1 5 3 7c8 8 14 20 18 33c1 2 2 5 4 6c3 2 4 6 4 10c0 3 -1 5 -2 7s-2 5 -2 7v31c0 29 -16 43 -47 43s-47 -15 -47 -43v-31c0 -2 -1 -5 -2 -7s-3 -4 -3 -7
c0 -4 2 -8 5 -10c2 -1 3 -4 4 -6c4 -13 9 -25 17 -33c4 -4 4 -11 0 -15s-10 -4 -14 0c-10 10 -17 24 -22 39c-7 6 -11 16 -11 25c0 6 2 12 5 17v28c0 40 26 64 68 64c43 0 67 -23 67 -64v-28c3 -5 5 -11 5 -17c0 -9 -4 -19 -11 -25c-4 -14 -10 -25 -18 -35v-8
c3 -4 17 -16 88 -44z" />
    <glyph glyph-name="ff-hold" unicode="&#xf1d1;" horiz-adv-x="371" 
d="M99 427c14 0 25 -11 25 -25v-420c0 -14 -11 -25 -25 -25h-74c-14 0 -25 11 -25 25v420c0 14 11 25 25 25h74zM347 427c14 0 24 -11 24 -25v-420c0 -14 -10 -25 -24 -25h-75c-14 0 -24 11 -24 25v420c0 14 10 25 24 25h75z" />
    <glyph glyph-name="ff-line-phone" unicode="&#xf1d2;" horiz-adv-x="495" 
d="M373 164l115 -116c9 -9 9 -22 1 -31c-2 -2 -37 -36 -37 -36l-2 -2c-7 -6 -18 -17 -33 -24c-14 -7 -30 -10 -47 -10v0c-60 0 -136 46 -231 142c-142 143 -174 239 -103 310l2 1s10 11 20 20l15 15c4 4 11 6 17 6s12 -3 16 -7l115 -115c4 -4 7 -11 7 -17s-3 -12 -7 -16
l-34 -32c0 -4 3 -19 22 -45c35 -46 81 -76 97 -76l-1 -1c2 2 21 20 30 29l5 5c9 9 25 8 33 0zM436 -2c2 2 34 32 36 34l-116 115l-4 -4c-9 -9 -29 -27 -31 -29c-1 -1 -2 -2 -4 -3c-3 -2 -7 -3 -11 -3c-28 0 -79 39 -115 86c-25 33 -34 60 -22 72l36 35l-115 115l-16 -14
l-20 -20l-1 -1c-26 -26 -86 -88 103 -278c90 -90 161 -135 214 -135v0c13 0 26 2 37 8c12 6 21 14 27 20z" />
    <glyph glyph-name="ff-mic" unicode="&#xf144;" horiz-adv-x="302" 
d="M151 119c-43 0 -78 35 -78 78v169c0 43 35 79 78 79s78 -36 78 -79v-169c0 -43 -35 -78 -78 -78zM288 -15c6 0 10 -4 10 -10v-25c0 -6 -4 -11 -10 -11h-274c-6 0 -10 5 -10 11v25c0 6 4 10 10 10h104v61c-65 15 -114 71 -118 139h27c4 -65 58 -116 124 -116
s121 51 125 116h26c-4 -68 -52 -124 -117 -139v-61h103z" />
    <glyph glyph-name="ff-mute" unicode="&#xf145;" horiz-adv-x="449" 
d="M425 444l24 -25l-425 -421l-24 24l103 103c-9 18 -15 38 -16 60h26c1 -14 5 -28 10 -41l38 38c-1 5 -1 10 -1 15v169c0 43 35 79 78 79s78 -36 78 -79v-30zM389 185c-4 -68 -53 -124 -118 -139v-61h104c6 0 10 -4 10 -10v-25c0 -6 -4 -11 -10 -11h-274c-6 0 -10 5 -10 11
v25c0 6 4 10 10 10h103v61c-23 5 -44 16 -62 30l19 19c21 -16 48 -26 77 -26c66 0 120 51 124 116h27zM316 197c0 -43 -35 -78 -78 -78c-15 0 -29 4 -41 11l119 118v-51z" />
    <glyph glyph-name="ff-on-browser" unicode="&#xf146;" horiz-adv-x="500" 
d="M130 298l83 -83l-83 -83c-8 -8 -19 -8 -27 0s-8 19 0 27l35 36h-118c-5 0 -10 2 -14 6s-6 9 -6 14c0 11 9 19 20 19h118l-35 36c-8 8 -8 20 0 28s19 8 27 0zM465 341c20 0 35 -15 35 -35v-178c0 -20 -15 -36 -35 -36h-94v-23h7c4 0 7 -3 7 -7v-16c0 -4 -3 -7 -7 -7h-90
c-4 0 -7 3 -7 7v16c0 4 3 7 7 7h7v23h-94c-20 0 -36 16 -36 36v15l37 37v-50h261v174h-261v-55l-37 37v20c0 20 16 35 36 35h264z" />
    </font>
</defs>
</svg>
